<?xml version="1.0" standalone="no"?>
<!DOCTYPE svg PUBLIC "-//W3C//DTD SVG 1.1//EN" "http://www.w3.org/Graphics/SVG/1.1/DTD/svg11.dtd" >
<svg xmlns="http://www.w3.org/2000/svg">
<metadata>
This is a custom SVG webfont generated by Font Squirrel.
Copyright   : Copyright c 2006 The Hoefler Type Foundry Inc dba Hoefler  FrereJones All Rights Reserved
Designer    : Hoefler  FrereJones
Foundry     : Hoefler  FrereJones
Foundry URL : wwwtypographycom
</metadata>
<defs>
<font id="VerlagBoldItalic" horiz-adv-x="496" >
<font-face units-per-em="1000" ascent="800" descent="-200" />
<missing-glyph horiz-adv-x="210" />
<glyph unicode="ffi" horiz-adv-x="861" d="M424 728l-32 -96q-22 5 -39 5q-42 0 -60.5 -22.5t-29.5 -83.5l-20 -104h106l-18 -92h-106l-105 -543h-112l106 543h-86l2 14l101 82l21 107q20 106 66.5 153.5t129.5 47.5q37 0 76 -11zM728 728l-32 -96q-22 5 -39 5q-42 0 -60.5 -22.5t-29.5 -83.5l-20 -104h106l-18 -92 h-106l-105 -543h-112l106 543h-86l2 14l101 82l21 107q20 106 66.5 153.5t129.5 47.5q37 0 76 -11zM840 427l-83 -427h-114l83 427h114zM877 574q0 -27 -19.5 -46.5t-46.5 -19.5q-28 0 -47.5 19.5t-19.5 46.5q0 28 19.5 47.5t47.5 19.5q27 0 46.5 -19.5t19.5 -47.5z" />
<glyph unicode="ffl" horiz-adv-x="856" d="M424 728l-32 -96q-22 5 -39 5q-42 0 -60.5 -22.5t-29.5 -83.5l-20 -104h106l-18 -92h-106l-105 -543h-112l106 543h-86l2 14l101 82l21 107q20 106 66.5 153.5t129.5 47.5q37 0 76 -11zM728 728l-32 -96q-22 5 -39 5q-42 0 -60.5 -22.5t-29.5 -83.5l-20 -104h106l-18 -92 h-106l-105 -543h-112l106 543h-86l2 14l101 82l21 107q20 106 66.5 153.5t129.5 47.5q37 0 76 -11zM896 733l-142 -733h-114l142 733h114z" />
<glyph unicode="ff" horiz-adv-x="623" d="M728 728l-32 -96q-22 5 -39 5q-42 0 -60.5 -22.5t-29.5 -83.5l-20 -104h106l-18 -92h-106l-105 -543h-112l106 543h-86l2 14l101 82l21 107q20 106 66.5 153.5t129.5 47.5q37 0 76 -11zM424 728l-32 -96q-22 5 -39 5q-42 0 -60.5 -22.5t-29.5 -83.5l-20 -104h106l-18 -92 h-106l-105 -543h-112l106 543h-86l2 14l101 82l21 107q20 106 66.5 153.5t129.5 47.5q37 0 76 -11z" />
<glyph unicode="fi" horiz-adv-x="557" d="M424 728l-32 -96q-22 5 -39 5q-42 0 -60.5 -22.5t-29.5 -83.5l-20 -104h106l-18 -92h-106l-105 -543h-112l106 543h-86l2 14l101 82l21 107q20 106 66.5 153.5t129.5 47.5q37 0 76 -11zM536 427l-83 -427h-114l83 427h114zM573 574q0 -27 -19.5 -46.5t-46.5 -19.5 q-28 0 -47.5 19.5t-19.5 46.5q0 28 19.5 47.5t47.5 19.5q27 0 46.5 -19.5t19.5 -47.5z" />
<glyph unicode="fl" horiz-adv-x="552" d="M592 733l-142 -733h-114l142 733h114zM424 728l-32 -96q-22 5 -39 5q-42 0 -60.5 -22.5t-29.5 -83.5l-20 -104h106l-18 -92h-106l-105 -543h-112l106 543h-86l2 14l101 82l21 107q20 106 66.5 153.5t129.5 47.5q37 0 76 -11z" />
<glyph unicode=" "  horiz-adv-x="210" />
<glyph unicode="&#x09;" horiz-adv-x="210" />
<glyph unicode="&#xa0;" horiz-adv-x="210" />
<glyph unicode="!" horiz-adv-x="262" d="M296 733l-129 -531l-76 3l79 528h126zM165 56q0 -26 -19 -45t-45 -19t-45 19t-19 45q0 27 19 45.5t45 18.5t45 -18.5t19 -45.5z" />
<glyph unicode="&#x22;" horiz-adv-x="420" d="M295 634l-173 -192l-46 36l140 216zM474 624l-174 -193l-45 36l139 217z" />
<glyph unicode="#" horiz-adv-x="608" d="M601 440l-18 -82h-106l-30 -132h107l-18 -82h-107l-31 -144h-89l32 144h-107l-31 -144h-89l31 144h-107l19 82h106l29 132h-106l18 82h106l31 143h89l-31 -143h106l32 143h89l-32 -143h107zM387 358h-106l-29 -132h106z" />
<glyph unicode="$" horiz-adv-x="477" d="M394 663l-21 -78q54 -13 106 -49l-52 -90q-45 30 -80 43l-42 -158q66 -39 93 -73.5t27 -83.5q0 -84 -59 -134t-145 -50h-8l-19 -72l-66 3l20 77q-71 15 -143 70l56 87q55 -45 113 -61l45 167q-65 38 -92 72t-27 83q0 75 58 126.5t145 51.5h5l19 71zM316 163q0 36 -41 65 l-37 -141q35 3 56.5 22.5t21.5 53.5zM208 427q0 -35 40 -62l35 134q-36 -2 -55.5 -22t-19.5 -50z" />
<glyph unicode="%" horiz-adv-x="701" d="M352 469q0 -79 -52 -131q-42 -42 -104 -42q-53 0 -84.5 35.5t-31.5 88.5q0 79 52 131q42 42 104 42q53 0 84.5 -35.5t31.5 -88.5zM682 554l-586 -572l-45 47l585 572zM275 467q0 29 -12 45t-34 16q-23 0 -41 -18q-31 -31 -31 -88q0 -28 12.5 -44.5t34.5 -16.5t40 18 q31 31 31 88zM652 163q0 -79 -52 -131q-43 -43 -104 -43q-53 0 -84.5 35.5t-31.5 89.5q0 79 52 131q42 42 104 42q53 0 84.5 -35.5t31.5 -88.5zM575 161q0 29 -12 45t-34 16q-23 0 -41 -18q-31 -31 -31 -88q0 -28 12.5 -44.5t34.5 -16.5t40 18q31 31 31 88z" />
<glyph unicode="&#x26;" horiz-adv-x="626" d="M591 227q-58 -59 -115 -109q38 -42 68 -70l-79 -64q-23 21 -70 72q-98 -66 -183 -66q-78 0 -127 41.5t-49 112.5q0 63 44 110.5t127 74.5q-21 48 -21 90q0 72 56.5 125.5t136.5 53.5q66 0 107 -37.5t41 -91.5q0 -123 -183 -180q33 -51 77 -106q45 39 109 108zM339 121 q-63 78 -96 139q-44 -16 -68 -42.5t-24 -59.5q0 -34 22.5 -54.5t62.5 -20.5q46 0 103 38zM424 456q0 24 -14.5 39.5t-40.5 15.5q-31 0 -54.5 -26.5t-23.5 -61.5q0 -33 18 -70q115 36 115 103z" />
<glyph unicode="'" horiz-adv-x="242" d="M295 634l-173 -192l-46 36l140 216z" />
<glyph unicode="(" horiz-adv-x="390" d="M479 681q-158 -82 -241 -210.5t-83 -286.5q0 -203 157 -359l-62 -64q-193 188 -193 424q0 177 101 327t286 243z" />
<glyph unicode=")" horiz-adv-x="390" d="M348 332q0 -177 -101.5 -327.5t-285.5 -243.5l-35 74q158 82 241 211t83 287q0 203 -157 359l62 63q193 -187 193 -423z" />
<glyph unicode="*" horiz-adv-x="395" d="M425 555l-110 -5l54 -96l-73 -34l-40 103l-75 -80l-55 58l86 69l-100 46l39 69l92 -60l14 109l78 -15l-28 -106l108 21z" />
<glyph unicode="+" horiz-adv-x="439" d="M412 332l-17 -87h-124l-26 -131h-91l26 131h-124l17 87h124l25 131h91l-25 -131h124z" />
<glyph unicode="," horiz-adv-x="247" d="M158 48q0 -51 -45 -99.5t-111 -80.5l-11 19q66 48 92 102q-24 7 -38.5 24t-14.5 40q0 27 19.5 46t45.5 19q28 0 45.5 -19.5t17.5 -50.5z" />
<glyph unicode="-" horiz-adv-x="339" d="M304 288l-17 -87h-241l17 87h241z" />
<glyph unicode="." horiz-adv-x="247" d="M158 56q0 -26 -19 -45t-45 -19t-45 19t-19 45q0 27 19 45.5t45 18.5t45 -18.5t19 -45.5z" />
<glyph unicode="/" horiz-adv-x="356" d="M453 733l-419 -949h-95l420 949h94z" />
<glyph unicode="0" horiz-adv-x="555" d="M532 362q0 -85 -30 -166.5t-83 -134.5q-69 -71 -162 -71q-92 0 -146.5 65.5t-54.5 165.5q0 85 29.5 167t82.5 135q72 70 162 70q93 0 147.5 -65t54.5 -166zM415 368q0 61 -23.5 96t-66.5 35q-38 0 -69 -31q-39 -39 -61 -111t-22 -141q0 -62 23.5 -97t66.5 -35q37 0 68 31 q39 39 61.5 111.5t22.5 141.5z" />
<glyph unicode="1" horiz-adv-x="376" d="M349 596l-116 -596h-113l88 454l-107 -38l-18 96l236 84h30z" />
<glyph unicode="2" horiz-adv-x="464" d="M449 434q0 -55 -25.5 -98t-90.5 -107q-69 -69 -145 -131h214l-18 -98h-390l6 47q103 87 228 207q59 55 83 90.5t24 69.5q0 35 -24 56.5t-64 21.5q-59 0 -127 -40l-24 91q88 51 168 50q84 0 134.5 -45.5t50.5 -113.5z" />
<glyph unicode="3" horiz-adv-x="455" d="M489 583l-8 -55l-222 -191q70 -13 110 -53t40 -101q0 -83 -63 -138t-165 -55q-88 0 -182 41l44 91q74 -33 137 -33q53 0 83 24t30 63q0 89 -151 89q-16 0 -32 -3l-10 38l210 185h-209l19 98h369z" />
<glyph unicode="4" horiz-adv-x="499" d="M479 237l-17 -90h-88l-29 -149h-107l29 149h-251l12 63l372 384h62l-70 -357h87zM286 237l30 158l-150 -158h120z" />
<glyph unicode="5" horiz-adv-x="482" d="M477 583l-19 -98h-215l-25 -120q106 -1 162 -47.5t56 -121.5q0 -90 -66 -148t-167 -58q-96 0 -182 39l40 93q73 -34 140 -34q56 0 87.5 26t31.5 68q0 92 -141 92q-31 0 -76 -7l-7 11l59 305h322z" />
<glyph unicode="6" horiz-adv-x="503" d="M461 205q0 -85 -61.5 -150t-160.5 -65q-83 0 -137.5 54t-54.5 137q0 120 95.5 233t297.5 192l32 -91q-86 -28 -156.5 -72.5t-109.5 -96.5q39 26 89 26q78 0 122 -48t44 -119zM349 198q0 43 -23.5 68.5t-64.5 25.5q-47 0 -75 -33t-28 -83q0 -42 25.5 -69t64.5 -27 q46 0 73.5 33.5t27.5 84.5z" />
<glyph unicode="7" horiz-adv-x="458" d="M516 583l-367 -583h-118l302 482h-242l20 101h405z" />
<glyph unicode="8" horiz-adv-x="510" d="M490 446q0 -106 -110 -153q72 -42 72 -121q0 -77 -60.5 -129.5t-155.5 -52.5q-87 0 -139 43t-52 112q0 52 32.5 95t90.5 63q-62 44 -62 113t58.5 123t148.5 54q80 0 128.5 -42.5t48.5 -104.5zM380 425q0 30 -20 52t-56 22q-41 0 -67 -27t-26 -63q0 -34 21.5 -54.5 t55.5 -20.5q39 0 65.5 26.5t26.5 64.5zM339 178q0 33 -21 55.5t-60 22.5q-42 0 -69 -27.5t-27 -67.5q0 -34 22.5 -55.5t59.5 -21.5q44 0 69.5 27.5t25.5 66.5z" />
<glyph unicode="9" horiz-adv-x="498" d="M485 404q0 -121 -95.5 -234.5t-297.5 -192.5l-32 92q85 27 154.5 70.5t110.5 95.5q-42 -20 -81 -20q-79 0 -124 48t-45 118q0 86 61.5 149t157.5 63q89 0 140 -54t51 -135zM374 412q0 41 -24.5 66.5t-63.5 25.5q-46 0 -73 -32.5t-27 -82.5q0 -43 23.5 -68t65.5 -25 q47 0 73 32.5t26 83.5z" />
<glyph unicode=":" horiz-adv-x="247" d="M209 322q0 -27 -18.5 -45.5t-45.5 -18.5q-26 0 -45 18.5t-19 45.5q0 26 19 45t45 19q27 0 45.5 -19t18.5 -45zM158 56q0 -26 -19 -45t-45 -19t-45 19t-19 45q0 27 19 45.5t45 18.5t45 -18.5t19 -45.5z" />
<glyph unicode=";" horiz-adv-x="247" d="M209 322q0 -27 -18.5 -45.5t-45.5 -18.5q-26 0 -45 18.5t-19 45.5q0 26 19 45t45 19q27 0 45.5 -19t18.5 -45zM158 48q0 -51 -45 -99.5t-111 -80.5l-11 19q66 48 92 102q-24 7 -38.5 24t-14.5 40q0 27 19.5 46t45.5 19q28 0 45.5 -19.5t17.5 -50.5z" />
<glyph unicode="&#x3c;" horiz-adv-x="394" d="M401 455l-219 -163l151 -183l-78 -62l-204 255l298 228z" />
<glyph unicode="=" horiz-adv-x="425" d="M375 250l-17 -84h-311l17 84h311zM406 411l-17 -85h-311l17 85h311z" />
<glyph unicode="&#x3e;" horiz-adv-x="394" d="M371 276l-298 -229l-52 75l219 163l-151 184l78 61z" />
<glyph unicode="?" horiz-adv-x="389" d="M445 588q0 -60 -31.5 -99.5t-88.5 -79.5q-3 -2 -16 -11.5l-16.5 -12l-15.5 -11.5t-16 -13t-13.5 -12.5t-13.5 -14l-11 -14.5t-10.5 -16.5t-7 -16.5t-5.5 -19l-9 -48l-100 4l12 68q5 27 16.5 50.5t31.5 44t34.5 32.5t39.5 31q30 22 45.5 36t29.5 35.5t14 44.5 q0 70 -102 70q-39 0 -87 -13l-7 100q67 16 130 16q92 0 144.5 -41.5t52.5 -109.5zM173 56q0 -26 -19 -45t-45 -19q-27 0 -45.5 19t-18.5 45q0 27 18.5 45.5t45.5 18.5q26 0 45 -18.5t19 -45.5z" />
<glyph unicode="@" horiz-adv-x="687" d="M658 340q0 -80 -46 -138t-108 -58q-60 0 -79 45q-44 -41 -95 -41q-43 0 -69 22t-26 54q0 35 26 60.5t70 25.5t79 -22q3 21 3 23q0 47 -69 47q-26 0 -50 -4l4 57q38 6 62 6q124 0 124 -99q0 -10 -4 -34l-10 -51q-4 -18 6.5 -29.5t30.5 -11.5q38 0 64.5 41.5t26.5 98.5 q0 89 -57 147.5t-157 58.5q-115 0 -189 -81t-74 -193q0 -92 63.5 -157.5t184.5 -65.5q41 0 96 12l4 -54q-61 -11 -114 -11q-74 0 -132.5 25.5t-93 65.5t-52 85.5t-17.5 89.5q0 139 93 238t231 99q124 0 199 -72t75 -179zM403 248q-28 16 -55 16q-20 0 -31.5 -10.5 t-11.5 -25.5q0 -14 11.5 -23.5t30.5 -9.5q28 0 50 23z" />
<glyph unicode="A" horiz-adv-x="678" d="M634 0h-128l-35 168h-279l-102 -168h-132l474 743h17zM450 267l-52 243l-147 -243h199z" />
<glyph unicode="B" horiz-adv-x="602" d="M600 556q0 -62 -41.5 -112.5t-112.5 -71.5q113 -49 113 -150q0 -103 -83.5 -166.5t-239.5 -63.5q-93 0 -197 20l139 715q77 11 158 11q124 0 194 -50.5t70 -131.5zM469 533q0 45 -34.5 71t-94.5 26q-27 0 -59 -5l-40 -205q24 -3 72 -3q75 0 115.5 32.5t40.5 83.5z M428 221q0 50 -41 78.5t-113 28.5q-25 0 -51 -2l-43 -220q36 -6 82 -6q73 0 119.5 32.5t46.5 88.5z" />
<glyph unicode="C" horiz-adv-x="701" d="M733 676l-60 -103q-81 57 -180 57q-123 0 -204.5 -89.5t-81.5 -210.5q0 -106 62 -166.5t161 -60.5q85 0 182 51l27 -105q-110 -61 -226 -61q-145 0 -241 91t-96 236q0 179 125 304.5t300 125.5q136 0 232 -69z" />
<glyph unicode="D" horiz-adv-x="746" d="M245 -6q-97 0 -206 14l139 718q80 12 163 12q195 0 297 -102q86 -86 86 -224q0 -186 -134.5 -302t-344.5 -116zM355 628q-42 0 -72 -5l-100 -513q34 -5 86 -5q137 0 230 82.5t93 214.5q0 104 -59 163q-65 63 -178 63z" />
<glyph unicode="E" horiz-adv-x="575" d="M610 733l-22 -114h-306l-37 -192h275l-21 -110h-275l-40 -203h306l-22 -114h-431l143 733h430z" />
<glyph unicode="F" horiz-adv-x="542" d="M610 733l-22 -114h-306l-42 -214h268l-22 -111h-267l-57 -294h-125l143 733h430z" />
<glyph unicode="G" horiz-adv-x="752" d="M723 388l-65 -333q-118 -67 -249 -67q-141 0 -237.5 89t-96.5 238q0 183 125.5 306.5t299.5 123.5q137 0 238 -71l-66 -99q-78 55 -185 55q-122 0 -201 -89.5t-79 -213.5q0 -107 60.5 -168t160.5 -61q70 0 125 30l29 151h-165l21 109h285z" />
<glyph unicode="H" horiz-adv-x="729" d="M749 733l-143 -733h-124l61 315h-320l-61 -315h-125l143 733h124l-59 -306h319l60 306h125z" />
<glyph unicode="I" horiz-adv-x="293" d="M310 733l-143 -733h-124l142 733h125z" />
<glyph unicode="J" horiz-adv-x="493" d="M516 733l-99 -509q-23 -118 -83.5 -177t-168.5 -59q-107 0 -185 62l64 96q59 -44 120 -44q57 0 87.5 33.5t44.5 108.5l96 489h124z" />
<glyph unicode="K" horiz-adv-x="648" d="M728 733l-377 -359l250 -374h-150l-221 352l-68 -352h-125l143 733h124l-64 -330l331 330h157z" />
<glyph unicode="L" horiz-adv-x="536" d="M490 114l-23 -114h-430l143 733h124l-120 -619h306z" />
<glyph unicode="M" horiz-adv-x="865" d="M866 742l-113 -742h-123l75 433l-284 -344h-14l-163 357l-94 -446h-122l175 742l18 2l223 -486l402 486z" />
<glyph unicode="N" horiz-adv-x="739" d="M759 733l-145 -744l-14 -3l-346 487l-92 -473h-125l145 743l20 4l341 -481l91 467h125z" />
<glyph unicode="O" horiz-adv-x="832" d="M812 418q0 -80 -29.5 -157t-81 -138t-129.5 -98t-168 -37q-147 0 -237.5 89.5t-90.5 238.5q0 108 49 205t144.5 160.5t215.5 63.5q146 0 236.5 -89.5t90.5 -237.5zM682 410q0 104 -55 164t-149 60q-116 0 -193.5 -91t-77.5 -220q0 -103 54.5 -163.5t148.5 -60.5 q116 0 194 91t78 220z" />
<glyph unicode="P" horiz-adv-x="586" d="M607 512q0 -125 -89.5 -201t-243.5 -76q-40 0 -66 4l-46 -239h-125l142 727q74 11 141 11q134 0 210.5 -61.5t76.5 -164.5zM478 499q0 56 -37.5 90t-103.5 34q-27 0 -55 -5l-52 -269q28 -4 63 -4q85 0 135 41.5t50 112.5z" />
<glyph unicode="Q" horiz-adv-x="832" d="M812 418q0 -168 -115 -295l61 -68l-92 -82l-61 72q-92 -57 -201 -57q-147 0 -237.5 89.5t-90.5 238.5q0 108 49 205t144.5 160.5t215.5 63.5q146 0 236.5 -89.5t90.5 -237.5zM682 410q0 104 -55 164t-149 60q-116 0 -193.5 -91t-77.5 -220q0 -103 54.5 -163.5 t149.5 -60.5q64 0 119 30l-106 118l93 82l101 -118q64 85 64 199z" />
<glyph unicode="R" horiz-adv-x="618" d="M611 522q0 -84 -51 -146.5t-137 -90.5l140 -285h-145l-115 262q-4 -1 -18 -1q-40 0 -71 4l-52 -265h-125l142 728q73 10 154 10q129 0 203.5 -58.5t74.5 -157.5zM480 509q0 55 -37 86t-102 31q-37 0 -59 -5l-48 -252q36 -3 66 -3q82 0 131 39t49 104z" />
<glyph unicode="S" horiz-adv-x="534" d="M558 679l-55 -106q-75 60 -155 60q-51 0 -78.5 -27.5t-27.5 -68.5q0 -35 24 -58t88 -62q71 -44 107 -88.5t36 -109.5q0 -97 -66.5 -164t-182.5 -67q-66 0 -130.5 24.5t-111.5 63.5l57 103q39 -35 90.5 -56t99.5 -21q57 0 86.5 27.5t29.5 73.5q0 38 -25.5 63.5t-86.5 63.5 q-72 43 -107 86t-35 108q0 92 68 156.5t171 64.5q114 0 204 -66z" />
<glyph unicode="T" horiz-adv-x="622" d="M698 733l-22 -114h-225l-121 -619h-124l121 619h-225l22 114h574z" />
<glyph unicode="U" horiz-adv-x="712" d="M740 733l-92 -473q-26 -134 -106 -203t-208 -69q-118 0 -186 61.5t-68 172.5q0 41 9 83l83 428h124l-84 -435q-6 -34 -6 -61q0 -65 36 -100.5t104 -35.5q147 0 181 181l89 451h124z" />
<glyph unicode="V" horiz-adv-x="678" d="M777 733l-475 -743h-16l-185 743h137l106 -492l291 492h142z" />
<glyph unicode="W" horiz-adv-x="956" d="M1049 733l-376 -745l-19 -2l-124 508l-316 -508l-20 2l-87 745h139l38 -459l284 465h15l112 -467l213 461h141z" />
<glyph unicode="X" horiz-adv-x="684" d="M766 733l-318 -368l176 -365h-143l-125 271l-225 -271h-152l319 367l-176 366h142l126 -271l225 271h151z" />
<glyph unicode="Y" horiz-adv-x="630" d="M728 733l-332 -427l-60 -306h-124l60 308l-168 425h135l118 -312l228 312h143z" />
<glyph unicode="Z" horiz-adv-x="633" d="M701 718l-490 -604h364l-22 -114h-561l-2 15l491 604h-347l22 114h543z" />
<glyph unicode="[" horiz-adv-x="320" d="M399 733l-16 -87h-126l-151 -776h126l-17 -86h-220l184 949h220z" />
<glyph unicode="\" horiz-adv-x="356" d="M260 -216h-87l-85 949h87z" />
<glyph unicode="]" horiz-adv-x="296" d="M344 733l-184 -949h-221l17 87h126l151 776h-126l17 86h220z" />
<glyph unicode="^" horiz-adv-x="470" d="M457 491h-100l-49 83l-81 -83h-108l183 177h46z" />
<glyph unicode="_" horiz-adv-x="520" d="M493 68l-13 -68h-523l13 68h523z" />
<glyph unicode="`" horiz-adv-x="470" d="M402 528l-38 -49l-175 104l67 86z" />
<glyph unicode="a" horiz-adv-x="448" d="M410 296q0 -29 -7 -66l-46 -230h-107l7 37q-56 -45 -120 -45q-53 0 -89.5 33t-36.5 89q0 63 46 104.5t122 41.5q64 0 111 -31l4 21q4 24 4 29q0 31 -21.5 49t-61.5 18q-39 0 -101 -20l-7 86q74 23 138 23q165 0 165 -139zM277 161q-34 27 -82 27q-35 0 -56.5 -18.5 t-21.5 -47.5q0 -25 17 -40.5t46 -15.5q43 0 86 38z" />
<glyph unicode="b" horiz-adv-x="510" d="M475 254q0 -106 -66.5 -184t-162.5 -78q-64 0 -115 39l-6 -31h-110l142 733h114l-65 -332q48 34 107 34q73 0 117.5 -51t44.5 -130zM362 245q0 46 -24 72.5t-63 26.5q-44 0 -87 -36l-37 -194q36 -31 82 -31q55 0 92 45t37 117z" />
<glyph unicode="c" horiz-adv-x="422" d="M433 389l-51 -79q-50 33 -101 33q-56 0 -94.5 -44.5t-38.5 -106.5q0 -53 32 -80.5t80 -27.5q45 0 88 20l19 -83q-64 -29 -131 -29q-85 0 -142.5 50.5t-57.5 141.5q0 100 71 175.5t180 75.5q81 0 146 -46z" />
<glyph unicode="d" horiz-adv-x="509" d="M553 733l-142 -733h-109l6 32q-55 -40 -111 -40q-68 0 -115.5 52t-47.5 132q0 106 67 182.5t166 76.5q59 0 109 -33l63 331h114zM359 314q-38 31 -84 31q-55 0 -91.5 -43.5t-36.5 -114.5q0 -49 24 -76t65 -27q46 0 84 32z" />
<glyph unicode="e" horiz-adv-x="472" d="M236 -8q-93 0 -147 46.5t-54 137.5q0 100 70 179.5t173 79.5q80 0 124 -48.5t44 -124.5q0 -38 -12 -78h-290v-8q3 -95 113 -95q42 0 108 17l12 -83q-67 -23 -141 -23zM154 254h188q1 6 1 18q-1 32 -20.5 53t-54.5 21q-38 0 -68.5 -25.5t-45.5 -66.5z" />
<glyph unicode="f" horiz-adv-x="319" d="M424 728l-32 -96q-22 5 -39 5q-42 0 -60.5 -22.5t-29.5 -83.5l-20 -104h106l-18 -92h-106l-105 -543h-112l106 543h-86l2 14l101 82l21 107q20 106 66.5 153.5t129.5 47.5q37 0 76 -11z" />
<glyph unicode="g" horiz-adv-x="511" d="M495 427l-89 -457q-37 -194 -224 -194q-75 0 -150 28l30 96q64 -23 115 -23q97 0 117 97l9 48q-46 -30 -97 -30q-74 0 -123 52t-49 132q0 106 67 182.5t166 76.5q63 0 113 -35l5 27h110zM359 314q-35 30 -83 30q-55 0 -92 -43.5t-37 -113.5q0 -49 25.5 -76.5t66.5 -27.5 t82 33z" />
<glyph unicode="h" d="M464 324q0 -20 -5 -45l-54 -279h-114l50 256q4 17 4 34q0 50 -50 50q-48 0 -112 -57l-54 -283h-114l142 733h114l-74 -375q84 77 161 77q51 0 78.5 -30t27.5 -81z" />
<glyph unicode="i" horiz-adv-x="238" d="M254 574q0 -27 -19.5 -46.5t-46.5 -19.5q-28 0 -47.5 19.5t-19.5 46.5q0 28 19.5 47.5t47.5 19.5q27 0 46.5 -19.5t19.5 -47.5zM217 427l-83 -427h-114l83 427h114z" />
<glyph unicode="j" horiz-adv-x="240" d="M256 574q0 -27 -19 -46.5t-47 -19.5t-47 19.5t-19 46.5q0 28 19 47.5t47 19.5t47 -19.5t19 -47.5zM219 427l-98 -501q-29 -150 -169 -150q-44 0 -86 12l30 93q24 -7 42 -7q60 0 72 63l95 490h114z" />
<glyph unicode="k" horiz-adv-x="458" d="M492 427l-215 -205l141 -222h-126l-124 203l-39 -203h-114l142 733h114l-95 -490l178 184h138z" />
<glyph unicode="l" horiz-adv-x="233" d="M273 733l-142 -733h-114l142 733h114z" />
<glyph unicode="m" horiz-adv-x="761" d="M728 325q0 -25 -4 -44l-54 -281h-114l50 258q4 26 4 33q0 49 -48 49q-44 0 -108 -55l-55 -285h-114l51 258q4 26 4 33q0 49 -47 49q-46 0 -109 -56l-55 -284h-114l83 427h110l-14 -71q84 79 159 79q43 0 69 -22t33 -60q87 82 168 82q52 0 78.5 -29.5t26.5 -80.5z" />
<glyph unicode="n" d="M464 324q0 -20 -5 -45l-54 -279h-114l50 256q4 17 4 34q0 50 -50 50q-48 0 -112 -57l-54 -283h-114l83 427h110l-15 -73q86 81 165 81q51 0 78.5 -30t27.5 -81z" />
<glyph unicode="o" horiz-adv-x="498" d="M352 249q0 45 -21 71.5t-61 26.5q-41 0 -75 -34q-50 -48 -50 -134q0 -44 21.5 -71t60.5 -27q42 0 75 33q50 50 50 135zM464 248q0 -50 -20.5 -100t-56.5 -86q-70 -70 -165 -70q-86 0 -137 52t-51 135q0 50 20.5 100t56.5 86q68 70 165 70q86 0 137 -52t51 -135z" />
<glyph unicode="p" horiz-adv-x="510" d="M475 254q0 -107 -66.5 -184.5t-166.5 -77.5q-57 0 -109 32l-46 -240h-115l126 643h110l-8 -39q56 47 118 47q66 0 111.5 -51t45.5 -130zM362 244q0 47 -23.5 73.5t-63.5 26.5q-42 0 -87 -37l-38 -194q35 -29 84 -29q54 0 91 44.5t37 115.5z" />
<glyph unicode="q" horiz-adv-x="509" d="M494 427l-124 -643h-114l47 238q-46 -30 -97 -30q-74 0 -123 52t-49 132q0 106 67 182.5t166 76.5q62 0 112 -35l6 27h109zM359 314q-39 31 -83 31q-55 0 -92 -44t-37 -115q0 -48 25 -75t66 -27q44 0 82 32z" />
<glyph unicode="r" horiz-adv-x="323" d="M343 435l-21 -112q-20 4 -30 4q-67 0 -109 -46l-54 -281h-114l83 427h110l-14 -70q33 40 67 59t82 19z" />
<glyph unicode="s" horiz-adv-x="384" d="M374 390l-48 -80q-56 39 -104 39q-28 0 -43.5 -12t-15.5 -31q0 -12 11.5 -22.5t22.5 -15.5t37 -16q51 -23 76.5 -47t25.5 -69q0 -66 -48 -105t-121 -39q-99 0 -174 60l55 78q65 -51 122 -51q60 0 60 47q0 17 -16 28t-50 26q-5 2 -7 3q-23 10 -36.5 18t-29.5 21t-23.5 31 t-7.5 41q0 60 47.5 100.5t118.5 40.5q80 0 148 -45z" />
<glyph unicode="t" horiz-adv-x="336" d="M350 427l-18 -92h-114l-38 -193q0 -2 -1 -10.5t-1 -9.5q0 -35 51 -35q16 0 46 5l-17 -89q-39 -11 -75 -11q-117 0 -117 102q0 23 4 46l38 195h-86l2 14l102 82l16 79l120 46l-26 -129h114z" />
<glyph unicode="u" d="M481 427l-83 -427h-110l15 73q-88 -81 -165 -81q-51 0 -78.5 30.5t-27.5 81.5q0 21 5 44l54 279h114l-50 -255q-4 -19 -4 -35q0 -50 50 -50q48 0 112 57l54 283h114z" />
<glyph unicode="v" horiz-adv-x="442" d="M486 427l-302 -438h-20l-127 438h120l56 -252l150 252h123z" />
<glyph unicode="w" horiz-adv-x="628" d="M664 427l-246 -438h-20l-80 259l-177 -259h-20l-78 438h119l27 -240l155 241h20l62 -241l114 240h124z" />
<glyph unicode="x" horiz-adv-x="451" d="M478 427l-189 -217l107 -210h-120l-66 143l-116 -143h-124l191 216l-108 211h119l68 -143l115 143h123z" />
<glyph unicode="y" horiz-adv-x="447" d="M488 427l-416 -643h-113l177 265l-96 378h119l51 -270l155 270h123z" />
<glyph unicode="z" horiz-adv-x="417" d="M435 412l-277 -319h210l-18 -93h-371l-2 15l277 319h-196l18 93h357z" />
<glyph unicode="{" horiz-adv-x="310" d="M400 740l-18 -93q-6 1 -18 1q-38 0 -59.5 -20t-30.5 -67l-37 -190q-10 -52 -30 -74.5t-65 -38.5q56 -23 56 -73q0 -15 -6 -45l-34 -172q-4 -16 -4 -33q0 -34 19 -49t59 -17l-17 -92q-80 4 -119 37.5t-39 101.5q0 22 7 57l34 177q3 24 3 26q0 44 -55 44h-20l16 81h21 q36 0 53.5 16.5t23.5 51.5l42 211q16 83 60 122t122 39q3 0 17.5 -0.5t18.5 -0.5z" />
<glyph unicode="|" horiz-adv-x="269" d="M93 -216h-86l185 949h86z" />
<glyph unicode="}" horiz-adv-x="309" d="M-72 -224l18 93q6 -1 18 -1q38 0 59.5 20t30.5 67l37 190q10 52 30 74.5t65 38.5q-56 24 -56 74q0 16 6 44l34 172q4 16 4 33q0 34 -19 49t-59 17l17 92q80 -4 119 -37.5t39 -101.5q0 -22 -7 -57l-34 -176q-3 -24 -3 -26q0 -44 55 -44h20l-16 -82h-21q-36 0 -53.5 -16 t-23.5 -51l-42 -212q-16 -83 -60 -122t-123 -39q-3 0 -17 0.5t-18 0.5z" />
<glyph unicode="~" horiz-adv-x="470" d="M438 368q-60 -62 -116 -62q-28 0 -68 21q-33 18 -57 18q-30 0 -68 -37l-31 61q56 59 112 59q30 0 66 -20q36 -18 57 -18q30 0 71 40z" />
<glyph unicode="&#xa1;" horiz-adv-x="262" d="M283 677q0 -26 -18.5 -45t-45.5 -19q-26 0 -44.5 19t-18.5 45q0 27 18.5 45.5t44.5 18.5q27 0 45.5 -18.5t18.5 -45.5zM230 529l-79 -529h-127l130 532z" />
<glyph unicode="&#xa2;" horiz-adv-x="430" d="M364 506l-20 -77q46 -10 89 -40l-50 -80q-35 23 -63 29l-68 -254h5q44 0 91 21l19 -84q-64 -29 -131 -29h-8l-19 -75l-69 3l22 83q-58 19 -92 65t-34 116q0 98 67 172t172 79l20 74zM144 187q0 -61 44 -85l62 238q-49 -11 -77.5 -53.5t-28.5 -99.5z" />
<glyph unicode="&#xa3;" horiz-adv-x="474" d="M514 543l-52 -90q-56 37 -101 37q-81 0 -101 -105l-10 -50h120l-18 -92h-120l-28 -143h228l-19 -100h-417l20 100h74l27 143h-71l1 7l86 73l17 83q18 90 73.5 138.5t142.5 48.5q80 0 148 -50z" />
<glyph unicode="&#xa5;" horiz-adv-x="547" d="M597 583l-201 -248h109l-16 -82h-147l-13 -62h148l-16 -79h-147l-22 -112h-115l22 112h-151l15 79h152l12 62h-152l16 82h118l-109 248h125l83 -213l160 213h129z" />
<glyph unicode="&#xa7;" horiz-adv-x="466" d="M198 -11q-100 0 -178 61l56 79q26 -23 61.5 -38t65.5 -15q33 0 49.5 13t16.5 34q0 25 -67 50q-7 3 -10 4q-25 9 -40 16.5t-34 20.5t-28.5 31.5t-9.5 42.5q0 62 74 104q-23 26 -23 62q0 59 49.5 99t128.5 40q88 0 150 -45l-48 -81q-57 41 -112 41q-28 0 -46 -12.5 t-18 -30.5q0 -13 13 -24t26.5 -16.5t41.5 -15.5q25 -9 40.5 -17t34.5 -21t28 -31t9 -41q0 -65 -76 -106q24 -27 24 -64q0 -63 -49.5 -101.5t-128.5 -38.5zM251 248l30 -14q40 18 40 51q0 17 -15 27.5t-54 25.5q-23 8 -29 11q-41 -18 -41 -47q0 -17 15 -27.5t54 -26.5z" />
<glyph unicode="&#xa8;" horiz-adv-x="470" d="M270 555q0 -25 -18.5 -43t-43.5 -18t-42.5 18t-17.5 43q0 26 17.5 44t42.5 18q26 0 44 -18.5t18 -43.5zM452 555q0 -25 -18 -43t-43 -18t-43 18t-18 43t18 43.5t43 18.5t43 -18t18 -44z" />
<glyph unicode="&#xa9;" horiz-adv-x="842" d="M568 206q-57 -31 -126 -31q-77 0 -126 44t-48 122q0 88 65.5 153t160.5 65q77 0 132 -40l-36 -62q-46 32 -97 32q-61 0 -102 -40.5t-41 -101.5q0 -48 29 -75t80 -27q48 0 94 26zM769 415q0 125 -75 201t-195 76q-151 0 -254.5 -110.5t-103.5 -263.5q0 -124 76 -200.5 t194 -76.5q151 0 254.5 111t103.5 263zM832 416q0 -82 -32 -159.5t-87 -137t-135 -96t-170 -36.5q-146 0 -238 92.5t-92 236.5q0 111 54 209.5t152.5 159.5t217.5 61q146 0 238 -92.5t92 -237.5z" />
<glyph unicode="&#xaa;" horiz-adv-x="370" d="M404 588l-35 -178h-93l5 28q-43 -34 -90 -34q-41 0 -70 26t-29 69q0 49 36 80t93 31q46 0 87 -24l3 21l2 15q0 50 -65 50q-30 0 -76 -15l-7 70q52 18 108 18q66 0 101 -29t35 -84q0 -17 -5 -44zM298 535q-26 17 -59 17q-24 0 -39.5 -12.5t-15.5 -34.5q0 -18 12 -29 t32 -11q31 0 61 25z" />
<glyph unicode="&#xab;" horiz-adv-x="472" d="M456 336l-142 -167l77 -160h-105l-73 164l137 163h106zM283 336l-142 -167l77 -160h-105l-73 164l137 163h106z" />
<glyph unicode="&#xae;" horiz-adv-x="384" d="M436 595q0 -80 -60 -138.5t-138 -58.5q-64 0 -106.5 41t-42.5 108q0 79 59 138.5t139 59.5q65 0 107 -42t42 -108zM404 595q0 54 -33 87.5t-87 33.5q-66 0 -114.5 -50t-48.5 -118q0 -55 33 -88.5t87 -33.5q66 0 114.5 50t48.5 119zM187 487l32 170q24 3 51 3q66 0 66 -48 q0 -21 -12 -37t-28 -22l28 -66h-45l-20 56h-22l-11 -56h-39zM252 625l-8 -49q4 -1 12 -1q17 0 28 8.5t11 21.5q0 21 -28 21q-9 0 -15 -1z" />
<glyph unicode="&#xaf;" horiz-adv-x="470" d="M448 591l-17 -86h-283l17 86h283z" />
<glyph unicode="&#xb0;" horiz-adv-x="375" d="M345 602q0 -49 -34.5 -87t-88.5 -38q-39 0 -65 25.5t-26 63.5q0 49 35 87t88 38q39 0 65 -25.5t26 -63.5zM281 595q0 19 -9.5 30t-25.5 11q-20 0 -35.5 -18t-15.5 -45q0 -19 9.5 -30t25.5 -11q20 0 35.5 17.5t15.5 45.5z" />
<glyph unicode="&#xb4;" horiz-adv-x="470" d="M412 571l-206 -92l-26 55l188 135z" />
<glyph unicode="&#xb6;" horiz-adv-x="625" d="M617 571l-111 -571h-86l94 484q-36 6 -63 8l-96 -492h-86l30 154q-93 13 -153 61.5t-60 132.5q0 114 94.5 179.5t237.5 65.5q98 0 199 -22zM364 490q-72 -1 -114 -37.5t-42 -95.5q0 -45 29.5 -71t81.5 -31z" />
<glyph unicode="&#xb7;" horiz-adv-x="287" d="M237 366q0 -27 -19 -45.5t-46 -18.5q-26 0 -44.5 18.5t-18.5 45.5q0 26 18.5 45t44.5 19q27 0 46 -19t19 -45z" />
<glyph unicode="&#xb8;" horiz-adv-x="470" d="M288 -147q0 -45 -34 -76t-88 -31q-66 0 -126 41l38 59q48 -34 90 -34q18 0 30.5 9.5t12.5 26.5q0 39 -87 44l-4 9l55 116l47 -13l-25 -60q91 -24 91 -91z" />
<glyph unicode="&#xba;" horiz-adv-x="390" d="M432 599q0 -77 -53.5 -136t-134.5 -59q-68 0 -108.5 41.5t-40.5 104.5q0 76 53 135.5t135 59.5q68 0 108.5 -41.5t40.5 -104.5zM337 599q0 33 -16.5 52.5t-44.5 19.5q-37 0 -61.5 -35.5t-24.5 -84.5q0 -34 16 -53.5t45 -19.5q37 0 61.5 35.5t24.5 85.5z" />
<glyph unicode="&#xbb;" horiz-adv-x="472" d="M417 172l-137 -163h-106l142 168l-77 159h105zM244 172l-137 -163h-106l142 168l-77 159h105z" />
<glyph unicode="&#xbf;" horiz-adv-x="389" d="M-1 145q0 32 9.5 59t29.5 49.5t37 37t45 34.5l42.5 30.5t34 28.5t33 39t15.5 42l9 48l100 -3l-13 -69q-4 -27 -15.5 -50t-32 -44t-33.5 -32t-40 -32q-31 -23 -46 -36t-29.5 -35t-14.5 -45q0 -69 103 -69q37 0 86 12l8 -99q-65 -17 -131 -17q-91 0 -144 41.5t-53 109.5z M272 677q0 27 18.5 45.5t45.5 18.5q26 0 45 -18.5t19 -45.5q0 -26 -19 -45t-45 -19q-27 0 -45.5 19t-18.5 45z" />
<glyph unicode="&#xc0;" horiz-adv-x="678" d="M634 0h-128l-35 168h-279l-102 -168h-132l474 743h17zM450 267l-52 243l-147 -243h199zM516 840l-38 -49l-175 104l67 86z" />
<glyph unicode="&#xc1;" horiz-adv-x="678" d="M634 0h-128l-35 168h-279l-102 -168h-132l474 743h17zM450 267l-52 243l-147 -243h199zM629 883l-206 -92l-26 55l188 135z" />
<glyph unicode="&#xc2;" horiz-adv-x="678" d="M634 0h-128l-35 168h-279l-102 -168h-132l474 743h17zM450 267l-52 243l-147 -243h199zM619 803h-100l-49 83l-81 -83h-108l183 177h46z" />
<glyph unicode="&#xc3;" horiz-adv-x="678" d="M634 0h-128l-35 168h-279l-102 -168h-132l474 743h17zM450 267l-52 243l-147 -243h199zM635 874q-58 -63 -117 -63q-29 0 -69 21q-32 17 -51 17q-30 0 -70 -37l-32 63q56 59 113 59q29 0 69 -21q34 -18 51 -18q31 0 73 41z" />
<glyph unicode="&#xc4;" horiz-adv-x="678" d="M634 0h-128l-35 168h-279l-102 -168h-132l474 743h17zM450 267l-52 243l-147 -243h199zM436 867q0 -25 -18.5 -43t-43.5 -18t-42.5 18t-17.5 43q0 26 17.5 44t42.5 18q26 0 44 -18.5t18 -43.5zM618 867q0 -25 -18 -43t-43 -18t-43 18t-18 43t18 43.5t43 18.5t43 -18 t18 -44z" />
<glyph unicode="&#xc5;" horiz-adv-x="678" d="M565 829q0 -45 -29.5 -82.5t-76.5 -45.5l175 -701h-128l-35 168h-279l-102 -168h-132l448 703q-30 9 -48.5 34t-18.5 58q0 51 36 90.5t92 39.5q42 0 70 -28t28 -68zM450 267l-52 243l-147 -243h199zM500 824q0 21 -11 33.5t-29 12.5q-22 0 -39 -20t-17 -50 q0 -21 10.5 -33.5t28.5 -12.5q23 0 40 20t17 50z" />
<glyph unicode="&#xc6;" horiz-adv-x="992" d="M1027 733l-22 -114h-307l-37 -192h276l-22 -110h-275l-39 -203h306l-23 -114h-430l35 180h-239l-154 -180h-142l637 733h436zM509 283l53 269l-227 -269h174z" />
<glyph unicode="&#xc7;" horiz-adv-x="701" d="M453 -147q0 -45 -34 -76t-88 -31q-66 0 -126 41l38 59q48 -34 90 -34q18 0 30.5 9.5t12.5 26.5q0 39 -87 44l-4 9l45 96q-114 24 -184 110t-70 208q0 179 125 304.5t300 125.5q136 0 232 -69l-60 -103q-81 57 -180 57q-123 0 -204.5 -89.5t-81.5 -210.5q0 -106 62 -166.5 t161 -60.5q85 0 182 51l27 -105q-110 -61 -226 -61q-12 0 -32 2l-19 -46q91 -24 91 -91z" />
<glyph unicode="&#xc8;" horiz-adv-x="575" d="M610 733l-22 -114h-306l-37 -192h275l-21 -110h-275l-40 -203h306l-22 -114h-431l143 733h430zM471 840l-38 -49l-175 104l67 86z" />
<glyph unicode="&#xc9;" horiz-adv-x="575" d="M584 883l-206 -92l-26 55l188 135zM610 733l-22 -114h-306l-37 -192h275l-21 -110h-275l-40 -203h306l-22 -114h-431l143 733h430z" />
<glyph unicode="&#xca;" horiz-adv-x="575" d="M573 803h-100l-49 83l-81 -83h-108l183 177h46zM610 733l-22 -114h-306l-37 -192h275l-21 -110h-275l-40 -203h306l-22 -114h-431l143 733h430z" />
<glyph unicode="&#xcb;" horiz-adv-x="575" d="M391 867q0 -25 -18.5 -43t-43.5 -18t-42.5 18t-17.5 43q0 26 17.5 44t42.5 18t43.5 -18.5t18.5 -43.5zM573 867q0 -25 -18 -43t-43 -18t-43 18t-18 43t18 43.5t43 18.5t43 -18t18 -44zM610 733l-22 -114h-306l-37 -192h275l-21 -110h-275l-40 -203h306l-22 -114h-431 l143 733h430z" />
<glyph unicode="&#xcc;" horiz-adv-x="293" d="M310 733l-143 -733h-124l142 733h125zM324 840l-38 -49l-175 104l67 86z" />
<glyph unicode="&#xcd;" horiz-adv-x="293" d="M310 733l-143 -733h-124l142 733h125zM437 883l-206 -92l-26 55l188 135z" />
<glyph unicode="&#xce;" horiz-adv-x="293" d="M310 733l-143 -733h-124l142 733h125zM427 803h-100l-49 83l-81 -83h-108l183 177h46z" />
<glyph unicode="&#xcf;" horiz-adv-x="293" d="M310 733l-143 -733h-124l142 733h125zM244 867q0 -25 -18.5 -43t-43.5 -18t-42.5 18t-17.5 43q0 26 17.5 44t42.5 18q26 0 44 -18.5t18 -43.5zM426 867q0 -25 -18 -43t-43 -18t-43 18t-18 43t18 43.5t43 18.5t43 -18t18 -44z" />
<glyph unicode="&#xd0;" horiz-adv-x="766" d="M734 412q0 -186 -134.5 -302t-344.5 -116q-97 0 -206 14l60 313h-81l20 104h81l59 301q80 12 163 12q195 0 297 -102q86 -86 86 -224zM602 402q0 104 -59 163q-65 63 -178 63q-42 0 -72 -5l-39 -198h112l-20 -104h-112l-41 -211q34 -5 86 -5q137 0 230 82.5t93 214.5z " />
<glyph unicode="&#xd1;" horiz-adv-x="739" d="M759 733l-145 -744l-14 -3l-346 487l-92 -473h-125l145 743l20 4l341 -481l91 467h125zM663 867q-58 -63 -117 -63q-29 0 -69 21q-32 17 -51 17q-30 0 -70 -37l-32 63q56 59 113 59q29 0 69 -21q34 -18 51 -18q31 0 73 41z" />
<glyph unicode="&#xd2;" horiz-adv-x="832" d="M812 418q0 -80 -29.5 -157t-81 -138t-129.5 -98t-168 -37q-147 0 -237.5 89.5t-90.5 238.5q0 108 49 205t144.5 160.5t215.5 63.5q146 0 236.5 -89.5t90.5 -237.5zM682 410q0 104 -55 164t-149 60q-116 0 -193.5 -91t-77.5 -220q0 -103 54.5 -163.5t148.5 -60.5 q116 0 194 91t78 220zM591 840l-38 -49l-175 104l67 86z" />
<glyph unicode="&#xd3;" horiz-adv-x="832" d="M705 883l-206 -92l-26 55l188 135zM812 418q0 -80 -29.5 -157t-81 -138t-129.5 -98t-168 -37q-147 0 -237.5 89.5t-90.5 238.5q0 108 49 205t144.5 160.5t215.5 63.5q146 0 236.5 -89.5t90.5 -237.5zM682 410q0 104 -55 164t-149 60q-116 0 -193.5 -91t-77.5 -220 q0 -103 54.5 -163.5t148.5 -60.5q116 0 194 91t78 220z" />
<glyph unicode="&#xd4;" horiz-adv-x="832" d="M694 803h-100l-49 83l-81 -83h-108l183 177h46zM812 418q0 -80 -29.5 -157t-81 -138t-129.5 -98t-168 -37q-147 0 -237.5 89.5t-90.5 238.5q0 108 49 205t144.5 160.5t215.5 63.5q146 0 236.5 -89.5t90.5 -237.5zM682 410q0 104 -55 164t-149 60q-116 0 -193.5 -91 t-77.5 -220q0 -103 54.5 -163.5t148.5 -60.5q116 0 194 91t78 220z" />
<glyph unicode="&#xd5;" horiz-adv-x="832" d="M812 418q0 -80 -29.5 -157t-81 -138t-129.5 -98t-168 -37q-147 0 -237.5 89.5t-90.5 238.5q0 108 49 205t144.5 160.5t215.5 63.5q146 0 236.5 -89.5t90.5 -237.5zM682 410q0 104 -55 164t-149 60q-116 0 -193.5 -91t-77.5 -220q0 -103 54.5 -163.5t148.5 -60.5 q116 0 194 91t78 220zM711 874q-58 -63 -117 -63q-29 0 -69 21q-32 17 -51 17q-30 0 -70 -37l-32 63q56 59 113 59q29 0 69 -21q34 -18 51 -18q31 0 73 41z" />
<glyph unicode="&#xd6;" horiz-adv-x="832" d="M511 867q0 -25 -18.5 -43t-43.5 -18t-42.5 18t-17.5 43q0 26 17.5 44t42.5 18t43.5 -18.5t18.5 -43.5zM693 867q0 -25 -18 -43t-43 -18t-43 18t-18 43t18 43.5t43 18.5t43 -18t18 -44zM812 418q0 -80 -29.5 -157t-81 -138t-129.5 -98t-168 -37q-147 0 -237.5 89.5 t-90.5 238.5q0 108 49 205t144.5 160.5t215.5 63.5q146 0 236.5 -89.5t90.5 -237.5zM682 410q0 104 -55 164t-149 60q-116 0 -193.5 -91t-77.5 -220q0 -103 54.5 -163.5t148.5 -60.5q116 0 194 91t78 220z" />
<glyph unicode="&#xd7;" horiz-adv-x="444" d="M370 454l51 -66l-125 -104l82 -106l-68 -57l-82 106l-125 -105l-51 65l125 105l-81 106l68 58l82 -106z" />
<glyph unicode="&#xd8;" horiz-adv-x="832" d="M812 421q0 -109 -49 -207t-144.5 -162t-214.5 -64q-141 0 -230 81l-88 -75l-57 70l89 76q-42 75 -42 172q0 81 29.5 158.5t81 139t130 98.5t168.5 37q141 0 230 -83l88 76l57 -69l-90 -77q42 -75 42 -171zM206 320q0 -49 14 -93l402 354q-54 54 -144 54q-116 0 -194 -92 t-78 -223zM683 413q0 49 -14 91l-403 -353q54 -54 145 -53q116 0 194 92t78 223z" />
<glyph unicode="&#xd9;" horiz-adv-x="712" d="M740 733l-92 -473q-26 -134 -106 -203t-208 -69q-118 0 -186 61.5t-68 172.5q0 41 9 83l83 428h124l-84 -435q-6 -34 -6 -61q0 -65 36 -100.5t104 -35.5q147 0 181 181l89 451h124zM529 833l-38 -49l-175 104l67 86z" />
<glyph unicode="&#xda;" horiz-adv-x="712" d="M642 876l-206 -92l-26 55l188 135zM740 733l-92 -473q-26 -134 -106 -203t-208 -69q-118 0 -186 61.5t-68 172.5q0 41 9 83l83 428h124l-84 -435q-6 -34 -6 -61q0 -65 36 -100.5t104 -35.5q147 0 181 181l89 451h124z" />
<glyph unicode="&#xdb;" horiz-adv-x="712" d="M631 796h-100l-49 83l-81 -83h-108l183 177h46zM740 733l-92 -473q-26 -134 -106 -203t-208 -69q-118 0 -186 61.5t-68 172.5q0 41 9 83l83 428h124l-84 -435q-6 -34 -6 -61q0 -65 36 -100.5t104 -35.5q147 0 181 181l89 451h124z" />
<glyph unicode="&#xdc;" horiz-adv-x="712" d="M448 860q0 -25 -18.5 -43t-43.5 -18t-42.5 18t-17.5 43q0 26 17.5 44t42.5 18q26 0 44 -18t18 -44zM630 860q0 -25 -18 -43t-43 -18t-43 18t-18 43t18 43.5t43 18.5t43 -18t18 -44zM740 733l-92 -473q-26 -134 -106 -203t-208 -69q-118 0 -186 61.5t-68 172.5q0 41 9 83 l83 428h124l-84 -435q-6 -34 -6 -61q0 -65 36 -100.5t104 -35.5q147 0 181 181l89 451h124z" />
<glyph unicode="&#xdd;" horiz-adv-x="630" d="M728 733l-332 -427l-60 -306h-124l60 308l-168 425h135l118 -312l228 312h143zM606 876l-206 -92l-26 55l188 135z" />
<glyph unicode="&#xde;" horiz-adv-x="586" d="M37 0l143 733h124l-22 -117q6 1 19 1q134 0 208 -61t74 -165q0 -125 -89.5 -201t-243.5 -76q-39 0 -65 4l-23 -118h-125zM454 378q0 56 -37 90t-103 34q-33 0 -56 -4l-52 -271q32 -3 64 -3q84 0 134 42t50 112z" />
<glyph unicode="&#xdf;" horiz-adv-x="531" d="M553 415l-184 -206q95 -37 93 -129q0 -74 -55 -124t-145 -50q-46 0 -98 12l25 91q46 -11 73 -11q41 0 65.5 22t24.5 56t-28 52.5t-78 20.5q-14 0 -20 -1l-4 14l149 172h-179l-104 -542h-113l146 755q20 103 68.5 148t129.5 45q36 0 81 -13l-32 -96q-24 7 -45 7 q-38 0 -60 -24.5t-32 -81.5l-20 -105h340z" />
<glyph unicode="&#xe0;" horiz-adv-x="448" d="M410 296q0 -29 -7 -66l-46 -230h-107l7 37q-56 -45 -120 -45q-53 0 -89.5 33t-36.5 89q0 63 46 104.5t122 41.5q64 0 111 -31l4 21q4 24 4 29q0 31 -21.5 49t-61.5 18q-39 0 -101 -20l-7 86q74 23 138 23q165 0 165 -139zM277 161q-34 27 -82 27q-35 0 -56.5 -18.5 t-21.5 -47.5q0 -25 17 -40.5t46 -15.5q43 0 86 38zM337 528l-38 -49l-175 104l67 86z" />
<glyph unicode="&#xe1;" horiz-adv-x="448" d="M410 296q0 -29 -7 -66l-46 -230h-107l7 37q-56 -45 -120 -45q-53 0 -89.5 33t-36.5 89q0 63 46 104.5t122 41.5q64 0 111 -31l4 21q4 24 4 29q0 31 -21.5 49t-61.5 18q-39 0 -101 -20l-7 86q74 23 138 23q165 0 165 -139zM277 161q-34 27 -82 27q-35 0 -56.5 -18.5 t-21.5 -47.5q0 -25 17 -40.5t46 -15.5q43 0 86 38zM450 571l-206 -92l-26 55l188 135z" />
<glyph unicode="&#xe2;" horiz-adv-x="448" d="M410 296q0 -29 -7 -66l-46 -230h-107l7 37q-56 -45 -120 -45q-53 0 -89.5 33t-36.5 89q0 63 46 104.5t122 41.5q64 0 111 -31l4 21q4 24 4 29q0 31 -21.5 49t-61.5 18q-39 0 -101 -20l-7 86q74 23 138 23q165 0 165 -139zM277 161q-34 27 -82 27q-35 0 -56.5 -18.5 t-21.5 -47.5q0 -25 17 -40.5t46 -15.5q43 0 86 38zM439 491h-100l-49 83l-81 -83h-108l183 177h46z" />
<glyph unicode="&#xe3;" horiz-adv-x="448" d="M410 296q0 -29 -7 -66l-46 -230h-107l7 37q-56 -45 -120 -45q-53 0 -89.5 33t-36.5 89q0 63 46 104.5t122 41.5q64 0 111 -31l4 21q4 24 4 29q0 31 -21.5 49t-61.5 18q-39 0 -101 -20l-7 86q74 23 138 23q165 0 165 -139zM277 161q-34 27 -82 27q-35 0 -56.5 -18.5 t-21.5 -47.5q0 -25 17 -40.5t46 -15.5q43 0 86 38zM457 562q-58 -63 -117 -63q-29 0 -69 21q-32 17 -51 17q-30 0 -70 -37l-32 63q56 59 113 59q29 0 69 -21q34 -18 51 -18q31 0 73 41z" />
<glyph unicode="&#xe4;" horiz-adv-x="448" d="M410 296q0 -29 -7 -66l-46 -230h-107l7 37q-56 -45 -120 -45q-53 0 -89.5 33t-36.5 89q0 63 46 104.5t122 41.5q64 0 111 -31l4 21q4 24 4 29q0 31 -21.5 49t-61.5 18q-39 0 -101 -20l-7 86q74 23 138 23q165 0 165 -139zM277 161q-34 27 -82 27q-35 0 -56.5 -18.5 t-21.5 -47.5q0 -25 17 -40.5t46 -15.5q43 0 86 38zM257 555q0 -25 -18.5 -43t-43.5 -18t-42.5 18t-17.5 43q0 26 17.5 44t42.5 18t43.5 -18.5t18.5 -43.5zM439 555q0 -25 -18 -43t-43 -18t-43 18t-18 43t18 43.5t43 18.5t43 -18t18 -44z" />
<glyph unicode="&#xe5;" horiz-adv-x="448" d="M410 296q0 -29 -7 -66l-46 -230h-107l7 37q-56 -45 -120 -45q-53 0 -89.5 33t-36.5 89q0 63 46 104.5t122 41.5q64 0 111 -31l4 21q4 24 4 29q0 31 -21.5 49t-61.5 18q-39 0 -101 -20l-7 86q74 23 138 23q165 0 165 -139zM277 161q-34 27 -82 27q-35 0 -56.5 -18.5 t-21.5 -47.5q0 -25 17 -40.5t46 -15.5q43 0 86 38zM409 617q0 -51 -36 -91t-92 -40q-42 0 -70 28t-28 68q0 51 36 90.5t92 39.5q42 0 70 -27.5t28 -67.5zM344 611q0 46 -39 46q-23 0 -40 -19.5t-17 -49.5q0 -22 11 -34t29 -12q22 0 39 19.5t17 49.5z" />
<glyph unicode="&#xe6;" horiz-adv-x="720" d="M150 -8q-60 0 -99.5 33t-39.5 89q0 63 46 104.5t122 41.5q64 0 111 -31l5 24q3 24 3 25q0 69 -83 69q-41 0 -101 -20l-8 83q72 25 139 25q102 0 132 -64q67 64 151 64q80 0 123.5 -48.5t43.5 -124.5q0 -34 -13 -78h-290v-8q3 -95 114 -95q42 0 107 17l12 -83 q-67 -23 -141 -23q-121 0 -169 76q-71 -76 -165 -76zM182 68q34 0 63.5 21.5t44.5 56.5q-32 42 -95 42q-34 0 -56 -18t-22 -46q0 -25 17.5 -40.5t47.5 -15.5zM402 254h188q1 6 1 16q0 33 -19.5 54.5t-55.5 21.5q-37 0 -68 -25.5t-46 -66.5z" />
<glyph unicode="&#xe7;" horiz-adv-x="422" d="M289 -147q0 -45 -34 -76t-88 -31q-66 0 -126 41l38 59q48 -34 90 -34q18 0 30.5 9.5t12.5 26.5q0 39 -87 44l-4 9l47 100q-60 18 -96 65t-36 118q0 100 71 175.5t180 75.5q81 0 146 -46l-51 -79q-50 33 -101 33q-56 0 -94.5 -44.5t-38.5 -106.5q0 -53 32 -80.5t80 -27.5 q45 0 88 20l19 -83q-64 -29 -131 -29q-12 0 -18 1l-20 -49q91 -24 91 -91z" />
<glyph unicode="&#xe8;" horiz-adv-x="472" d="M236 -8q-93 0 -147 46.5t-54 137.5q0 100 70 179.5t173 79.5q80 0 124 -48.5t44 -124.5q0 -38 -12 -78h-290v-8q3 -95 113 -95q42 0 108 17l12 -83q-67 -23 -141 -23zM363 528l-38 -49l-175 104l67 86zM154 254h188q1 6 1 18q-1 32 -20.5 53t-54.5 21q-38 0 -68.5 -25.5 t-45.5 -66.5z" />
<glyph unicode="&#xe9;" horiz-adv-x="472" d="M236 -8q-93 0 -147 46.5t-54 137.5q0 100 70 179.5t173 79.5q80 0 124 -48.5t44 -124.5q0 -38 -12 -78h-290v-8q3 -95 113 -95q42 0 108 17l12 -83q-67 -23 -141 -23zM476 571l-206 -92l-26 55l188 135zM154 254h188q1 6 1 18q-1 32 -20.5 53t-54.5 21q-38 0 -68.5 -25.5 t-45.5 -66.5z" />
<glyph unicode="&#xea;" horiz-adv-x="472" d="M236 -8q-93 0 -147 46.5t-54 137.5q0 100 70 179.5t173 79.5q80 0 124 -48.5t44 -124.5q0 -38 -12 -78h-290v-8q3 -95 113 -95q42 0 108 17l12 -83q-67 -23 -141 -23zM465 491h-100l-49 83l-81 -83h-108l183 177h46zM154 254h188q1 6 1 18q-1 32 -20.5 53t-54.5 21 q-38 0 -68.5 -25.5t-45.5 -66.5z" />
<glyph unicode="&#xeb;" horiz-adv-x="472" d="M236 -8q-93 0 -147 46.5t-54 137.5q0 100 70 179.5t173 79.5q80 0 124 -48.5t44 -124.5q0 -38 -12 -78h-290v-8q3 -95 113 -95q42 0 108 17l12 -83q-67 -23 -141 -23zM154 254h188q1 6 1 18q-1 32 -20.5 53t-54.5 21q-38 0 -68.5 -25.5t-45.5 -66.5zM282 555 q0 -25 -18.5 -43t-43.5 -18t-42.5 18t-17.5 43q0 26 17.5 44t42.5 18q26 0 44 -18.5t18 -43.5zM464 555q0 -25 -18 -43t-43 -18t-43 18t-18 43t18 43.5t43 18.5t43 -18t18 -44z" />
<glyph unicode="&#xec;" horiz-adv-x="238" d="M217 427l-83 -427h-114l83 427h114zM235 528l-38 -49l-175 104l67 86z" />
<glyph unicode="&#xed;" horiz-adv-x="238" d="M348 571l-206 -92l-26 55l188 135zM217 427l-83 -427h-114l83 427h114z" />
<glyph unicode="&#xee;" horiz-adv-x="238" d="M336 491h-100l-49 83l-81 -83h-108l183 177h46zM216 427l-83 -427h-114l83 427h114z" />
<glyph unicode="&#xef;" horiz-adv-x="238" d="M154 555q0 -25 -18.5 -43t-43.5 -18t-42.5 18t-17.5 43q0 26 17.5 44t42.5 18q26 0 44 -18.5t18 -43.5zM336 555q0 -25 -18 -43t-43 -18t-43 18t-18 43t18 43.5t43 18.5t43 -18t18 -44zM217 427l-83 -427h-114l83 427h114z" />
<glyph unicode="&#xf0;" horiz-adv-x="507" d="M427 650l-66 -44q111 -127 111 -303q0 -132 -70 -222t-183 -90q-81 0 -132.5 52t-51.5 131q0 102 67.5 180.5t169.5 78.5q59 0 87 -33q-16 79 -81 149l-90 -60l-41 66l71 49q-35 27 -81 50l52 85q66 -37 114 -77l81 55zM360 251q0 47 -23 73t-62 26q-54 0 -92 -49.5 t-38 -119.5q0 -47 23 -73.5t61 -26.5q55 0 93 50t38 120z" />
<glyph unicode="&#xf1;" d="M464 324q0 -20 -5 -45l-54 -279h-114l50 256q4 17 4 34q0 50 -50 50q-48 0 -112 -57l-54 -283h-114l83 427h110l-15 -73q86 81 165 81q51 0 78.5 -30t27.5 -81zM487 562q-58 -63 -117 -63q-29 0 -69 21q-32 17 -51 17q-30 0 -70 -37l-32 63q56 59 113 59q29 0 69 -21 q34 -18 51 -18q31 0 73 41z" />
<glyph unicode="&#xf2;" horiz-adv-x="500" d="M352 249q0 45 -21 71.5t-61 26.5q-41 0 -75 -34q-50 -48 -50 -134q0 -44 21.5 -71t60.5 -27q42 0 75 33q50 50 50 135zM464 248q0 -50 -20.5 -100t-56.5 -86q-70 -70 -165 -70q-86 0 -137 52t-51 135q0 50 20.5 100t56.5 86q68 70 165 70q86 0 137 -52t51 -135zM367 528 l-38 -49l-175 104l67 86z" />
<glyph unicode="&#xf3;" horiz-adv-x="500" d="M480 571l-206 -92l-26 55l188 135zM352 249q0 45 -21 71.5t-61 26.5q-41 0 -75 -34q-50 -48 -50 -134q0 -44 21.5 -71t60.5 -27q42 0 75 33q50 50 50 135zM464 248q0 -50 -20.5 -100t-56.5 -86q-70 -70 -165 -70q-86 0 -137 52t-51 135q0 50 20.5 100t56.5 86 q68 70 165 70q86 0 137 -52t51 -135z" />
<glyph unicode="&#xf4;" horiz-adv-x="500" d="M468 491h-100l-49 83l-81 -83h-108l183 177h46zM352 249q0 45 -21 71.5t-61 26.5q-41 0 -75 -34q-50 -48 -50 -134q0 -44 21.5 -71t60.5 -27q42 0 75 33q50 50 50 135zM464 248q0 -50 -20.5 -100t-56.5 -86q-70 -70 -165 -70q-86 0 -137 52t-51 135q0 50 20.5 100 t56.5 86q68 70 165 70q86 0 137 -52t51 -135z" />
<glyph unicode="&#xf5;" horiz-adv-x="500" d="M352 249q0 45 -21 71.5t-61 26.5q-41 0 -75 -34q-50 -48 -50 -134q0 -44 21.5 -71t60.5 -27q42 0 75 33q50 50 50 135zM464 248q0 -50 -20.5 -100t-56.5 -86q-70 -70 -165 -70q-86 0 -137 52t-51 135q0 50 20.5 100t56.5 86q68 70 165 70q86 0 137 -52t51 -135zM486 562 q-58 -63 -117 -63q-29 0 -69 21q-32 17 -51 17q-30 0 -70 -37l-32 63q56 59 113 59q29 0 69 -21q34 -18 51 -18q31 0 73 41z" />
<glyph unicode="&#xf6;" horiz-adv-x="500" d="M286 555q0 -25 -18.5 -43t-43.5 -18t-42.5 18t-17.5 43q0 26 17.5 44t42.5 18q26 0 44 -18.5t18 -43.5zM468 555q0 -25 -18 -43t-43 -18t-43 18t-18 43t18 43.5t43 18.5t43 -18t18 -44zM352 249q0 45 -21 71.5t-61 26.5q-41 0 -75 -34q-50 -48 -50 -134q0 -44 21.5 -71 t60.5 -27q42 0 75 33q50 50 50 135zM464 248q0 -50 -20.5 -100t-56.5 -86q-70 -70 -165 -70q-86 0 -137 52t-51 135q0 50 20.5 100t56.5 86q68 70 165 70q86 0 137 -52t51 -135z" />
<glyph unicode="&#xf7;" horiz-adv-x="439" d="M264 146q0 -24 -17 -41.5t-42 -17.5t-42 17.5t-17 41.5q0 25 17 42.5t42 17.5t42 -17.5t17 -42.5zM56 246l16 84h339l-16 -84h-339zM320 429q0 -25 -17 -42t-42 -17t-42 17t-17 42q0 24 17 41.5t42 17.5t42 -17.5t17 -41.5z" />
<glyph unicode="&#xf8;" horiz-adv-x="498" d="M464 248q0 -50 -20.5 -100t-56.5 -86q-70 -70 -165 -70q-85 0 -136 51l-61 -51l-35 40l65 54q-21 40 -21 93q0 50 20.5 100t56.5 86q68 70 165 70q85 0 136 -51l63 51l33 -40l-65 -54q21 -41 21 -93zM146 162l187 156q-22 30 -65 30q-41 0 -75 -34q-48 -48 -48 -133 q0 -13 1 -19zM353 247q0 3 -0.5 9t-0.5 9l-187 -156q21 -29 65 -29q40 0 75 33q48 50 48 134z" />
<glyph unicode="&#xf9;" d="M481 427l-83 -427h-110l15 73q-88 -81 -165 -81q-51 0 -78.5 30.5t-27.5 81.5q0 21 5 44l54 279h114l-50 -255q-4 -19 -4 -35q0 -50 50 -50q48 0 112 57l54 283h114zM365 528l-38 -49l-175 104l67 86z" />
<glyph unicode="&#xfa;" d="M478 571l-206 -92l-26 55l188 135zM481 427l-83 -427h-110l15 73q-88 -81 -165 -81q-51 0 -78.5 30.5t-27.5 81.5q0 21 5 44l54 279h114l-50 -255q-4 -19 -4 -35q0 -50 50 -50q48 0 112 57l54 283h114z" />
<glyph unicode="&#xfb;" d="M466 491h-100l-49 83l-81 -83h-108l183 177h46zM481 427l-83 -427h-110l15 73q-88 -81 -165 -81q-51 0 -78.5 30.5t-27.5 81.5q0 21 5 44l54 279h114l-50 -255q-4 -19 -4 -35q0 -50 50 -50q48 0 112 57l54 283h114z" />
<glyph unicode="&#xfc;" d="M284 555q0 -25 -18.5 -43t-43.5 -18t-42.5 18t-17.5 43q0 26 17.5 44t42.5 18q26 0 44 -18.5t18 -43.5zM466 555q0 -25 -18 -43t-43 -18t-43 18t-18 43t18 43.5t43 18.5t43 -18t18 -44zM481 427l-83 -427h-110l15 73q-88 -81 -165 -81q-51 0 -78.5 30.5t-27.5 81.5 q0 21 5 44l54 279h114l-50 -255q-4 -19 -4 -35q0 -50 50 -50q48 0 112 57l54 283h114z" />
<glyph unicode="&#xfd;" horiz-adv-x="447" d="M488 427l-416 -643h-113l177 265l-96 378h119l51 -270l155 270h123zM451 571l-206 -92l-26 55l188 135z" />
<glyph unicode="&#xfe;" horiz-adv-x="510" d="M475 254q0 -107 -66.5 -184.5t-166.5 -77.5q-57 0 -109 32l-46 -240h-115l185 949h114l-65 -332q48 34 107 34q73 0 117.5 -51t44.5 -130zM362 245q0 46 -24 72.5t-63 26.5q-44 0 -87 -36l-38 -195q37 -29 83 -29q55 0 92 44.5t37 116.5z" />
<glyph unicode="&#xff;" horiz-adv-x="447" d="M488 427l-416 -643h-113l177 265l-96 378h119l51 -270l155 270h123zM258 555q0 -25 -18.5 -43t-43.5 -18t-42.5 18t-17.5 43q0 26 17.5 44t42.5 18q26 0 44 -18.5t18 -43.5zM440 555q0 -25 -18 -43t-43 -18t-43 18t-18 43t18 43.5t43 18.5t43 -18t18 -44z" />
<glyph unicode="&#x100;" horiz-adv-x="678" d="M634 0h-128l-35 168h-279l-102 -168h-132l474 743h17zM450 267l-52 243l-147 -243h199zM615 903l-17 -86h-283l17 86h283z" />
<glyph unicode="&#x101;" horiz-adv-x="448" d="M410 296q0 -29 -7 -66l-46 -230h-107l7 37q-56 -45 -120 -45q-53 0 -89.5 33t-36.5 89q0 63 46 104.5t122 41.5q64 0 111 -31l4 21q4 24 4 29q0 31 -21.5 49t-61.5 18q-39 0 -101 -20l-7 86q74 23 138 23q165 0 165 -139zM277 161q-34 27 -82 27q-35 0 -56.5 -18.5 t-21.5 -47.5q0 -25 17 -40.5t46 -15.5q43 0 86 38zM436 591l-17 -86h-283l17 86h283z" />
<glyph unicode="&#x102;" horiz-adv-x="678" d="M634 0h-128l-35 168h-279l-102 -168h-132l474 743h17zM450 267l-52 243l-147 -243h199zM639 959q-32 -162 -183 -162q-68 0 -106 34t-38 91q0 20 4 37l87 6q-3 -9 -3 -29q0 -66 63 -66q71 0 90 95z" />
<glyph unicode="&#x103;" horiz-adv-x="448" d="M410 296q0 -29 -7 -66l-46 -230h-107l7 37q-56 -45 -120 -45q-53 0 -89.5 33t-36.5 89q0 63 46 104.5t122 41.5q64 0 111 -31l4 21q4 24 4 29q0 31 -21.5 49t-61.5 18q-39 0 -101 -20l-7 86q74 23 138 23q165 0 165 -139zM277 161q-34 27 -82 27q-35 0 -56.5 -18.5 t-21.5 -47.5q0 -25 17 -40.5t46 -15.5q43 0 86 38zM464 647q-32 -162 -183 -162q-68 0 -106 34t-38 91q0 20 4 37l87 6q-3 -9 -3 -29q0 -66 63 -66q71 0 90 95z" />
<glyph unicode="&#x104;" horiz-adv-x="678" d="M620 -173q-51 -48 -112 -49q-36 0 -56 19t-20 52q0 70 93 151h-19l-35 168h-279l-102 -168h-132l474 743h17l185 -743h-32q-1 -1 -10.5 -10l-12.5 -12l-12 -12.5t-12.5 -14l-11 -13.5t-10.5 -15t-7.5 -14t-6 -15.5t-1.5 -14.5q0 -29 28 -29q20 0 49 24zM450 267l-52 243 l-147 -243h199z" />
<glyph unicode="&#x105;" horiz-adv-x="448" d="M342 -173q-51 -48 -112 -49q-36 0 -56 19t-20 52q0 71 96 153l7 35q-56 -45 -120 -45q-53 0 -89.5 33t-36.5 89q0 63 46 104.5t122 41.5q64 0 111 -31l4 21q4 24 4 29q0 31 -21.5 49t-61.5 18q-39 0 -101 -20l-7 86q74 23 138 23q165 0 165 -139q0 -29 -7 -66l-46 -230 h-33q-1 -1 -10.5 -10l-12.5 -12l-12 -12.5t-12.5 -14l-11 -13.5t-10.5 -15t-7.5 -14t-6 -15.5t-1.5 -14.5q0 -29 28 -29q20 0 49 24zM277 161q-34 27 -82 27q-35 0 -56.5 -18.5t-21.5 -47.5q0 -25 17 -40.5t46 -15.5q43 0 86 38z" />
<glyph unicode="&#x106;" horiz-adv-x="701" d="M685 883l-206 -92l-26 55l188 135zM733 676l-60 -103q-81 57 -180 57q-123 0 -204.5 -89.5t-81.5 -210.5q0 -106 62 -166.5t161 -60.5q85 0 182 51l27 -105q-110 -61 -226 -61q-145 0 -241 91t-96 236q0 179 125 304.5t300 125.5q136 0 232 -69z" />
<glyph unicode="&#x107;" horiz-adv-x="422" d="M469 571l-206 -92l-26 55l188 135zM433 389l-51 -79q-50 33 -101 33q-56 0 -94.5 -44.5t-38.5 -106.5q0 -53 32 -80.5t80 -27.5q45 0 88 20l19 -83q-64 -29 -131 -29q-85 0 -142.5 50.5t-57.5 141.5q0 100 71 175.5t180 75.5q81 0 146 -46z" />
<glyph unicode="&#x10a;" horiz-adv-x="701" d="M733 676l-60 -103q-81 57 -180 57q-123 0 -204.5 -89.5t-81.5 -210.5q0 -106 62 -166.5t161 -60.5q85 0 182 51l27 -105q-110 -61 -226 -61q-145 0 -241 91t-96 236q0 179 125 304.5t300 125.5q136 0 232 -69zM582 867q0 -25 -18 -43t-43 -18t-43 18t-18 43t18 43.5 t43 18.5t43 -18t18 -44z" />
<glyph unicode="&#x10b;" horiz-adv-x="422" d="M433 389l-51 -79q-50 33 -101 33q-56 0 -94.5 -44.5t-38.5 -106.5q0 -53 32 -80.5t80 -27.5q45 0 88 20l19 -83q-64 -29 -131 -29q-85 0 -142.5 50.5t-57.5 141.5q0 100 71 175.5t180 75.5q81 0 146 -46zM366 555q0 -25 -18 -43t-43 -18t-43 18t-18 43t18 43.5t43 18.5 t43 -18t18 -44z" />
<glyph unicode="&#x10c;" horiz-adv-x="701" d="M714 979l-183 -177h-45l-110 177h101l49 -83l80 83h108zM733 676l-60 -103q-81 57 -180 57q-123 0 -204.5 -89.5t-81.5 -210.5q0 -106 62 -166.5t161 -60.5q85 0 182 51l27 -105q-110 -61 -226 -61q-145 0 -241 91t-96 236q0 179 125 304.5t300 125.5q136 0 232 -69z" />
<glyph unicode="&#x10d;" horiz-adv-x="422" d="M498 667l-183 -177h-45l-110 177h101l49 -83l80 83h108zM433 389l-51 -79q-50 33 -101 33q-56 0 -94.5 -44.5t-38.5 -106.5q0 -53 32 -80.5t80 -27.5q45 0 88 20l19 -83q-64 -29 -131 -29q-85 0 -142.5 50.5t-57.5 141.5q0 100 71 175.5t180 75.5q81 0 146 -46z" />
<glyph unicode="&#x10e;" horiz-adv-x="746" d="M245 -6q-97 0 -206 14l139 718q80 12 163 12q195 0 297 -102q86 -86 86 -224q0 -186 -134.5 -302t-344.5 -116zM355 628q-42 0 -72 -5l-100 -513q34 -5 86 -5q137 0 230 82.5t93 214.5q0 104 -59 163q-65 63 -178 63zM650 979l-183 -177h-45l-110 177h101l49 -83l80 83 h108z" />
<glyph unicode="&#x10f;" horiz-adv-x="510" d="M647 733l88 -21q-22 -127 -134 -193l-46 37q69 61 92 177zM553 733l-142 -733h-109l6 32q-55 -40 -111 -40q-68 0 -115.5 52t-47.5 132q0 106 67 182.5t166 76.5q59 0 109 -33l63 331h114zM359 314q-38 31 -84 31q-55 0 -91.5 -43.5t-36.5 -114.5q0 -49 24 -76t65 -27 q46 0 84 32z" />
<glyph unicode="&#x110;" horiz-adv-x="766" d="M734 412q0 -186 -134.5 -302t-344.5 -116q-97 0 -206 14l60 313h-81l20 104h81l59 301q80 12 163 12q195 0 297 -102q86 -86 86 -224zM602 402q0 104 -59 163q-65 63 -178 63q-42 0 -72 -5l-39 -198h112l-20 -104h-112l-41 -211q34 -5 86 -5q137 0 230 82.5t93 214.5z " />
<glyph unicode="&#x111;" horiz-adv-x="510" d="M553 733l-20 -100h57l-17 -85h-56l-106 -548h-109l6 32q-55 -40 -111 -40q-68 0 -115.5 52t-47.5 132q0 106 67 182.5t166 76.5q59 0 109 -33l28 146h-140l17 85h139l19 100h114zM359 314q-38 31 -84 31q-55 0 -91.5 -43.5t-36.5 -114.5q0 -49 24 -76t65 -27q46 0 84 32z " />
<glyph unicode="&#x112;" horiz-adv-x="575" d="M610 733l-22 -114h-306l-37 -192h275l-21 -110h-275l-40 -203h306l-22 -114h-431l143 733h430zM569 903l-17 -86h-283l17 86h283z" />
<glyph unicode="&#x113;" horiz-adv-x="472" d="M236 -8q-93 0 -147 46.5t-54 137.5q0 100 70 179.5t173 79.5q80 0 124 -48.5t44 -124.5q0 -38 -12 -78h-290v-8q3 -95 113 -95q42 0 108 17l12 -83q-67 -23 -141 -23zM461 591l-17 -86h-283l17 86h283zM154 254h188q1 6 1 18q-1 32 -20.5 53t-54.5 21q-38 0 -68.5 -25.5 t-45.5 -66.5z" />
<glyph unicode="&#x114;" horiz-adv-x="575" d="M610 733l-22 -114h-306l-37 -192h275l-21 -110h-275l-40 -203h306l-22 -114h-431l143 733h430zM597 959q-32 -162 -183 -162q-68 0 -106 34t-38 91q0 20 4 37l87 6q-3 -9 -3 -29q0 -66 63 -66q71 0 90 95z" />
<glyph unicode="&#x115;" horiz-adv-x="472" d="M236 -8q-93 0 -147 46.5t-54 137.5q0 100 70 179.5t173 79.5q80 0 124 -48.5t44 -124.5q0 -38 -12 -78h-290v-8q3 -95 113 -95q42 0 108 17l12 -83q-67 -23 -141 -23zM489 647q-32 -162 -183 -162q-68 0 -106 34t-38 91q0 20 4 37l87 6q-3 -9 -3 -29q0 -66 63 -66 q71 0 90 95zM154 254h188q1 6 1 18q-1 32 -20.5 53t-54.5 21q-38 0 -68.5 -25.5t-45.5 -66.5z" />
<glyph unicode="&#x116;" horiz-adv-x="575" d="M610 733l-22 -114h-306l-37 -192h275l-21 -110h-275l-40 -203h306l-22 -114h-431l143 733h430zM482 867q0 -25 -18 -43t-43 -18t-43 18t-18 43t18 43.5t43 18.5t43 -18t18 -44z" />
<glyph unicode="&#x117;" horiz-adv-x="472" d="M236 -8q-93 0 -147 46.5t-54 137.5q0 100 70 179.5t173 79.5q80 0 124 -48.5t44 -124.5q0 -38 -12 -78h-290v-8q3 -95 113 -95q42 0 108 17l12 -83q-67 -23 -141 -23zM154 254h188q1 6 1 18q-1 32 -20.5 53t-54.5 21q-38 0 -68.5 -25.5t-45.5 -66.5zM373 555 q0 -25 -18 -43t-43 -18t-43 18t-18 43t18 43.5t43 18.5t43 -18t18 -44z" />
<glyph unicode="&#x118;" horiz-adv-x="575" d="M610 733l-22 -114h-306l-37 -192h275l-21 -110h-275l-40 -203h306l-22 -114h-41q-1 -1 -10.5 -10l-12.5 -12l-12 -12.5t-12.5 -14l-11 -13.5t-10.5 -15t-7.5 -14t-6 -15.5t-1.5 -14.5q0 -29 28 -29q21 0 49 24l25 -47q-51 -48 -112 -49q-36 0 -56 19t-20 52q0 70 93 151 h-313l143 733h430z" />
<glyph unicode="&#x119;" horiz-adv-x="472" d="M236 -8q-93 0 -147 46.5t-54 137.5q0 100 70 179.5t173 79.5q80 0 124 -48.5t44 -124.5q0 -38 -12 -78h-290v-8q3 -95 113 -95q42 0 108 17l12 -83q-104 -80 -104 -136q0 -29 28 -29q21 0 50 24l25 -47q-52 -48 -112 -49q-37 0 -57 19t-20 52q0 67 86 144q-11 -1 -37 -1z M154 254h188q1 6 1 18q-1 32 -20.5 53t-54.5 21q-38 0 -68.5 -25.5t-45.5 -66.5z" />
<glyph unicode="&#x11a;" horiz-adv-x="575" d="M613 979l-183 -177h-45l-110 177h101l49 -83l80 83h108zM610 733l-22 -114h-306l-37 -192h275l-21 -110h-275l-40 -203h306l-22 -114h-431l143 733h430z" />
<glyph unicode="&#x11b;" horiz-adv-x="472" d="M236 -8q-93 0 -147 46.5t-54 137.5q0 100 70 179.5t173 79.5q80 0 124 -48.5t44 -124.5q0 -38 -12 -78h-290v-8q3 -95 113 -95q42 0 108 17l12 -83q-67 -23 -141 -23zM505 667l-183 -177h-45l-110 177h101l49 -83l80 83h108zM154 254h188q1 6 1 18q-1 32 -20.5 53 t-54.5 21q-38 0 -68.5 -25.5t-45.5 -66.5z" />
<glyph unicode="&#x11e;" horiz-adv-x="752" d="M723 388l-65 -333q-118 -67 -249 -67q-141 0 -237.5 89t-96.5 238q0 183 125.5 306.5t299.5 123.5q137 0 238 -71l-66 -99q-78 55 -185 55q-122 0 -201 -89.5t-79 -213.5q0 -107 60.5 -168t160.5 -61q70 0 125 30l29 151h-165l21 109h285zM699 959q-32 -162 -183 -162 q-68 0 -106 34t-38 91q0 20 4 37l87 6q-3 -9 -3 -29q0 -66 63 -66q71 0 90 95z" />
<glyph unicode="&#x11f;" horiz-adv-x="511" d="M495 427l-89 -457q-37 -194 -224 -194q-75 0 -150 28l30 96q64 -23 115 -23q97 0 117 97l9 48q-46 -30 -97 -30q-74 0 -123 52t-49 132q0 106 67 182.5t166 76.5q63 0 113 -35l5 27h110zM359 314q-35 30 -83 30q-55 0 -92 -43.5t-37 -113.5q0 -49 25.5 -76.5t66.5 -27.5 t82 33zM512 647q-32 -162 -183 -162q-68 0 -106 34t-38 91q0 20 4 37l87 6q-3 -9 -3 -29q0 -66 63 -66q71 0 90 95z" />
<glyph unicode="&#x120;" horiz-adv-x="752" d="M723 388l-65 -333q-118 -67 -249 -67q-141 0 -237.5 89t-96.5 238q0 183 125.5 306.5t299.5 123.5q137 0 238 -71l-66 -99q-78 55 -185 55q-122 0 -201 -89.5t-79 -213.5q0 -107 60.5 -168t160.5 -61q70 0 125 30l29 151h-165l21 109h285zM584 867q0 -25 -18 -43t-43 -18 t-43 18t-18 43t18 43.5t43 18.5t43 -18t18 -44z" />
<glyph unicode="&#x121;" horiz-adv-x="511" d="M495 427l-89 -457q-37 -194 -224 -194q-75 0 -150 28l30 96q64 -23 115 -23q97 0 117 97l9 48q-46 -30 -97 -30q-74 0 -123 52t-49 132q0 106 67 182.5t166 76.5q63 0 113 -35l5 27h110zM359 314q-35 30 -83 30q-55 0 -92 -43.5t-37 -113.5q0 -49 25.5 -76.5t66.5 -27.5 t82 33zM396 555q0 -25 -18 -43t-43 -18t-43 18t-18 43t18 43.5t43 18.5t43 -18t18 -44z" />
<glyph unicode="&#x122;" horiz-adv-x="752" d="M401 -143q0 -50 -45 -98.5t-111 -80.5l-11 19q67 49 92 102q-53 15 -53 63q0 27 19.5 46t45.5 19q28 0 45.5 -19.5t17.5 -50.5zM723 388l-65 -333q-118 -67 -249 -67q-141 0 -237.5 89t-96.5 238q0 183 125.5 306.5t299.5 123.5q137 0 238 -71l-66 -99q-78 55 -185 55 q-122 0 -201 -89.5t-79 -213.5q0 -107 60.5 -168t160.5 -61q70 0 125 30l29 151h-165l21 109h285z" />
<glyph unicode="&#x123;" horiz-adv-x="511" d="M270 563q0 50 45 98.5t111 80.5l11 -19q-67 -49 -92 -102q53 -15 53 -63q0 -27 -19.5 -46t-45.5 -19q-28 0 -45.5 19.5t-17.5 50.5zM495 427l-89 -457q-37 -194 -224 -194q-75 0 -150 28l30 96q64 -23 115 -23q97 0 117 97l9 48q-46 -30 -97 -30q-74 0 -123 52t-49 132 q0 106 67 182.5t166 76.5q63 0 113 -35l5 27h110zM359 314q-35 30 -83 30q-55 0 -92 -43.5t-37 -113.5q0 -49 25.5 -76.5t66.5 -27.5t82 33z" />
<glyph unicode="&#x126;" horiz-adv-x="729" d="M749 733l-22 -113h72l-17 -86h-72l-104 -534h-124l59 305h-320l-59 -305h-125l104 534h-73l17 86h73l22 113h124l-22 -113h320l22 113h125zM243 417h319l23 117h-320z" />
<glyph unicode="&#x127;" d="M464 324q0 -20 -5 -45l-54 -279h-114l50 256q4 17 4 34q0 50 -50 50q-48 0 -112 -57l-54 -283h-114l106 548h-54l16 85h54l20 100h114l-20 -100h141l-16 -85h-142l-37 -190q84 77 161 77q51 0 78.5 -30t27.5 -81z" />
<glyph unicode="&#x12a;" horiz-adv-x="293" d="M310 733l-143 -733h-124l142 733h125zM423 903l-17 -86h-283l17 86h283z" />
<glyph unicode="&#x12b;" horiz-adv-x="238" d="M217 427l-83 -427h-114l83 427h114zM333 591l-17 -86h-283l17 86h283z" />
<glyph unicode="&#x12c;" horiz-adv-x="293" d="M310 733l-143 -733h-124l142 733h125zM451 959q-32 -162 -183 -162q-68 0 -106 34t-38 91q0 20 4 37l87 6q-3 -9 -3 -29q0 -66 63 -66q71 0 90 95z" />
<glyph unicode="&#x12d;" horiz-adv-x="238" d="M217 427l-83 -427h-114l83 427h114zM361 647q-32 -162 -183 -162q-68 0 -106 34t-38 91q0 20 4 37l87 6q-3 -9 -3 -29q0 -66 63 -66q71 0 90 95z" />
<glyph unicode="&#x12e;" horiz-adv-x="293" d="M310 733l-143 -733h-20q-1 -1 -10.5 -10l-12.5 -12l-12 -12.5t-12.5 -14l-11 -13.5t-10.5 -15t-7.5 -14t-6 -15.5t-1.5 -14.5q0 -29 28 -29q21 0 49 24l25 -47q-51 -48 -112 -49q-37 0 -57 19t-20 52q0 69 94 151h-27l142 733h125z" />
<glyph unicode="&#x12f;" horiz-adv-x="238" d="M217 427l-83 -427h-17q-26 -24 -38 -36t-29.5 -38.5t-17.5 -46.5q0 -29 28 -29q22 0 50 24l25 -47q-52 -48 -112 -49q-37 0 -57 19t-20 52q0 68 93 151h-19l83 427h114zM254 574q0 -27 -19.5 -46.5t-46.5 -19.5q-28 0 -47.5 19.5t-19.5 46.5q0 28 19.5 47.5t47.5 19.5 q27 0 46.5 -19.5t19.5 -47.5z" />
<glyph unicode="&#x130;" horiz-adv-x="293" d="M310 733l-143 -733h-124l142 733h125zM335 867q0 -25 -18 -43t-43 -18t-43 18t-18 43t18 43.5t43 18.5t43 -18t18 -44z" />
<glyph unicode="&#x131;" horiz-adv-x="238" d="M217 427l-83 -427h-114l83 427h114z" />
<glyph unicode="&#x136;" horiz-adv-x="648" d="M338 -143q0 -50 -45 -98.5t-111 -80.5l-11 19q67 49 92 102q-53 15 -53 63q0 27 19.5 46t45.5 19q28 0 45.5 -19.5t17.5 -50.5zM728 733l-377 -359l250 -374h-150l-221 352l-68 -352h-125l143 733h124l-64 -330l331 330h157z" />
<glyph unicode="&#x137;" horiz-adv-x="458" d="M231 -143q0 -50 -45 -98.5t-111 -80.5l-11 19q67 49 92 102q-53 15 -53 63q0 27 19.5 46t45.5 19q28 0 45.5 -19.5t17.5 -50.5zM492 427l-215 -205l141 -222h-126l-124 203l-39 -203h-114l142 733h114l-95 -490l178 184h138z" />
<glyph unicode="&#x139;" horiz-adv-x="536" d="M446 883l-206 -92l-26 55l188 135zM490 114l-23 -114h-430l143 733h124l-120 -619h306z" />
<glyph unicode="&#x13a;" horiz-adv-x="233" d="M409 883l-206 -92l-26 55l188 135zM273 733l-142 -733h-114l142 733h114z" />
<glyph unicode="&#x13b;" horiz-adv-x="536" d="M298 -143q0 -50 -45 -98.5t-111 -80.5l-11 19q67 49 92 102q-53 15 -53 63q0 27 19.5 46t45.5 19q28 0 45.5 -19.5t17.5 -50.5zM490 114l-23 -114h-430l143 733h124l-120 -619h306z" />
<glyph unicode="&#x13c;" horiz-adv-x="233" d="M115 -143q0 -50 -45 -98.5t-111 -80.5l-11 19q67 49 92 102q-53 15 -53 63q0 27 19.5 46t45.5 19q28 0 45.5 -19.5t17.5 -50.5zM272 733l-142 -733h-114l142 733h114z" />
<glyph unicode="&#x13d;" horiz-adv-x="536" d="M409 728l88 -21q-22 -127 -134 -193l-46 37q69 61 92 177zM490 114l-23 -114h-430l143 733h124l-120 -619h306z" />
<glyph unicode="&#x13e;" horiz-adv-x="233" d="M364 733l88 -21q-22 -127 -134 -193l-46 37q69 61 92 177zM273 733l-142 -733h-114l142 733h114z" />
<glyph unicode="&#x13f;" horiz-adv-x="536" d="M490 114l-23 -114h-430l143 733h124l-120 -619h306zM503 365q0 -25 -18 -43t-43 -18t-43 18t-18 43t18 43.5t43 18.5t43 -18t18 -44z" />
<glyph unicode="&#x140;" horiz-adv-x="336" d="M273 733l-142 -733h-114l142 733h114zM373 366q0 -25 -18 -43t-43 -18t-43 18t-18 43t18 43.5t43 18.5t43 -18t18 -44z" />
<glyph unicode="&#x141;" horiz-adv-x="551" d="M505 114l-23 -114h-430l54 276l-63 -26l21 107l62 26l69 350h124l-57 -295l112 46l-20 -107l-113 -47l-42 -216h306z" />
<glyph unicode="&#x142;" horiz-adv-x="243" d="M278 733l-59 -303l52 24l-21 -107l-52 -24l-62 -323h-114l52 269l-47 -22l21 107l47 22l69 357h114z" />
<glyph unicode="&#x143;" horiz-adv-x="739" d="M657 876l-206 -92l-26 55l188 135zM759 733l-145 -744l-14 -3l-346 487l-92 -473h-125l145 743l20 4l341 -481l91 467h125z" />
<glyph unicode="&#x144;" d="M481 571l-206 -92l-26 55l188 135zM464 324q0 -20 -5 -45l-54 -279h-114l50 256q4 17 4 34q0 50 -50 50q-48 0 -112 -57l-54 -283h-114l83 427h110l-15 -73q86 81 165 81q51 0 78.5 -30t27.5 -81z" />
<glyph unicode="&#x145;" horiz-adv-x="739" d="M368 -143q0 -50 -45 -98.5t-111 -80.5l-11 19q67 49 92 102q-53 15 -53 63q0 27 19.5 46t45.5 19q28 0 45.5 -19.5t17.5 -50.5zM759 733l-145 -744l-14 -3l-346 487l-92 -473h-125l145 743l20 4l341 -481l91 467h125z" />
<glyph unicode="&#x146;" d="M251 -143q0 -50 -45 -98.5t-111 -80.5l-11 19q67 49 92 102q-53 15 -53 63q0 27 19.5 46t45.5 19q28 0 45.5 -19.5t17.5 -50.5zM464 324q0 -20 -5 -45l-54 -279h-114l50 256q4 17 4 34q0 50 -50 50q-48 0 -112 -57l-54 -283h-114l83 427h110l-15 -73q86 81 165 81 q51 0 78.5 -30t27.5 -81z" />
<glyph unicode="&#x147;" horiz-adv-x="739" d="M686 972l-183 -177h-45l-110 177h101l49 -83l80 83h108zM759 733l-145 -744l-14 -3l-346 487l-92 -473h-125l145 743l20 4l341 -481l91 467h125z" />
<glyph unicode="&#x148;" d="M510 667l-183 -177h-45l-110 177h101l49 -83l80 83h108zM464 324q0 -20 -5 -45l-54 -279h-114l50 256q4 17 4 34q0 50 -50 50q-48 0 -112 -57l-54 -283h-114l83 427h110l-15 -73q86 81 165 81q51 0 78.5 -30t27.5 -81z" />
<glyph unicode="&#x14c;" horiz-adv-x="832" d="M690 903l-17 -86h-283l17 86h283zM812 418q0 -80 -29.5 -157t-81 -138t-129.5 -98t-168 -37q-147 0 -237.5 89.5t-90.5 238.5q0 108 49 205t144.5 160.5t215.5 63.5q146 0 236.5 -89.5t90.5 -237.5zM682 410q0 104 -55 164t-149 60q-116 0 -193.5 -91t-77.5 -220 q0 -103 54.5 -163.5t148.5 -60.5q116 0 194 91t78 220z" />
<glyph unicode="&#x14d;" horiz-adv-x="500" d="M464 591l-17 -86h-283l17 86h283zM352 249q0 45 -21 71.5t-61 26.5q-41 0 -75 -34q-50 -48 -50 -134q0 -44 21.5 -71t60.5 -27q42 0 75 33q50 50 50 135zM464 248q0 -50 -20.5 -100t-56.5 -86q-70 -70 -165 -70q-86 0 -137 52t-51 135q0 50 20.5 100t56.5 86 q68 70 165 70q86 0 137 -52t51 -135z" />
<glyph unicode="&#x14e;" horiz-adv-x="832" d="M812 418q0 -80 -29.5 -157t-81 -138t-129.5 -98t-168 -37q-147 0 -237.5 89.5t-90.5 238.5q0 108 49 205t144.5 160.5t215.5 63.5q146 0 236.5 -89.5t90.5 -237.5zM682 410q0 104 -55 164t-149 60q-116 0 -193.5 -91t-77.5 -220q0 -103 54.5 -163.5t148.5 -60.5 q116 0 194 91t78 220zM718 959q-32 -162 -183 -162q-68 0 -106 34t-38 91q0 20 4 37l87 6q-3 -9 -3 -29q0 -66 63 -66q71 0 90 95z" />
<glyph unicode="&#x14f;" horiz-adv-x="500" d="M352 249q0 45 -21 71.5t-61 26.5q-41 0 -75 -34q-50 -48 -50 -134q0 -44 21.5 -71t60.5 -27q42 0 75 33q50 50 50 135zM464 248q0 -50 -20.5 -100t-56.5 -86q-70 -70 -165 -70q-86 0 -137 52t-51 135q0 50 20.5 100t56.5 86q68 70 165 70q86 0 137 -52t51 -135zM497 647 q-32 -162 -183 -162q-68 0 -106 34t-38 91q0 20 4 37l87 6q-3 -9 -3 -29q0 -66 63 -66q71 0 90 95z" />
<glyph unicode="&#x150;" horiz-adv-x="832" d="M622 953l-167 -155l-38 37l138 182zM781 943l-169 -154l-37 38l139 180zM812 418q0 -80 -29.5 -157t-81 -138t-129.5 -98t-168 -37q-147 0 -237.5 89.5t-90.5 238.5q0 108 49 205t144.5 160.5t215.5 63.5q146 0 236.5 -89.5t90.5 -237.5zM682 410q0 104 -55 164t-149 60 q-116 0 -193.5 -91t-77.5 -220q0 -103 54.5 -163.5t148.5 -60.5q116 0 194 91t78 220z" />
<glyph unicode="&#x151;" horiz-adv-x="500" d="M397 641l-167 -155l-38 37l138 182zM556 631l-169 -154l-37 38l139 180zM352 249q0 45 -21 71.5t-61 26.5q-41 0 -75 -34q-50 -48 -50 -134q0 -44 21.5 -71t60.5 -27q42 0 75 33q50 50 50 135zM464 248q0 -50 -20.5 -100t-56.5 -86q-70 -70 -165 -70q-86 0 -137 52 t-51 135q0 50 20.5 100t56.5 86q68 70 165 70q86 0 137 -52t51 -135z" />
<glyph unicode="&#x152;" horiz-adv-x="1036" d="M1071 733l-22 -114h-307l-37 -192h276l-22 -110h-275l-39 -203h306l-23 -114h-357q-99 -6 -109 -6q-181 0 -282.5 90t-101.5 237q0 186 134.5 302t344.5 116q62 0 131 -6h383zM447 105q42 0 72 5l99 514q-40 5 -85 5q-137 0 -230 -82.5t-93 -215.5q0 -116 75 -174 q63 -52 162 -52z" />
<glyph unicode="&#x153;" horiz-adv-x="784" d="M746 184h-290v-8q3 -95 113 -95q42 0 108 17l12 -83q-67 -23 -139 -23q-119 0 -165 75q-67 -75 -164 -75q-84 0 -135 52t-51 135q0 50 20.5 100t56.5 86q68 70 165 70q101 0 148 -76q68 76 166 76q80 0 123.5 -48.5t43.5 -124.5q0 -38 -12 -78zM271 347q-40 0 -75 -33 q-50 -50 -50 -134q0 -45 21.5 -72t60.5 -27q44 0 75 33q51 49 51 134q0 45 -21.5 72t-61.5 27zM654 254q1 5 1 15q0 34 -19.5 55.5t-55.5 21.5q-37 0 -68 -25.5t-46 -66.5h188z" />
<glyph unicode="&#x154;" horiz-adv-x="618" d="M589 883l-206 -92l-26 55l188 135zM611 522q0 -84 -51 -146.5t-137 -90.5l140 -285h-145l-115 262q-4 -1 -18 -1q-40 0 -71 4l-52 -265h-125l142 728q73 10 154 10q129 0 203.5 -58.5t74.5 -157.5zM480 509q0 55 -37 86t-102 31q-37 0 -59 -5l-48 -252q36 -3 66 -3 q82 0 131 39t49 104z" />
<glyph unicode="&#x155;" horiz-adv-x="323" d="M419 571l-206 -92l-26 55l188 135zM343 435l-21 -112q-20 4 -30 4q-67 0 -109 -46l-54 -281h-114l83 427h110l-14 -70q33 40 67 59t82 19z" />
<glyph unicode="&#x156;" horiz-adv-x="618" d="M299 -143q0 -50 -45 -98.5t-111 -80.5l-11 19q67 49 92 102q-53 15 -53 63q0 27 19.5 46t45.5 19q28 0 45.5 -19.5t17.5 -50.5zM611 522q0 -84 -51 -146.5t-137 -90.5l140 -285h-145l-115 262q-4 -1 -18 -1q-40 0 -71 4l-52 -265h-125l142 728q73 10 154 10 q129 0 203.5 -58.5t74.5 -157.5zM480 509q0 55 -37 86t-102 31q-37 0 -59 -5l-48 -252q36 -3 66 -3q82 0 131 39t49 104z" />
<glyph unicode="&#x157;" horiz-adv-x="323" d="M114 -143q0 -50 -45 -98.5t-111 -80.5l-11 19q67 49 92 102q-53 15 -53 63q0 27 19.5 46t45.5 19q28 0 45.5 -19.5t17.5 -50.5zM342 435l-21 -112q-20 4 -30 4q-67 0 -109 -46l-54 -281h-114l83 427h110l-14 -70q33 40 67 59t82 19z" />
<glyph unicode="&#x158;" horiz-adv-x="618" d="M618 979l-183 -177h-45l-110 177h101l49 -83l80 83h108zM611 522q0 -84 -51 -146.5t-137 -90.5l140 -285h-145l-115 262q-4 -1 -18 -1q-40 0 -71 4l-52 -265h-125l142 728q73 10 154 10q129 0 203.5 -58.5t74.5 -157.5zM480 509q0 55 -37 86t-102 31q-37 0 -59 -5 l-48 -252q36 -3 66 -3q82 0 131 39t49 104z" />
<glyph unicode="&#x159;" horiz-adv-x="323" d="M448 667l-183 -177h-45l-110 177h101l49 -83l80 83h108zM343 435l-21 -112q-20 4 -30 4q-67 0 -109 -46l-54 -281h-114l83 427h110l-14 -70q33 40 67 59t82 19z" />
<glyph unicode="&#x15a;" horiz-adv-x="534" d="M553 883l-206 -92l-26 55l188 135zM558 679l-55 -106q-75 60 -155 60q-51 0 -78.5 -27.5t-27.5 -68.5q0 -35 24 -58t88 -62q71 -44 107 -88.5t36 -109.5q0 -97 -66.5 -164t-182.5 -67q-66 0 -130.5 24.5t-111.5 63.5l57 103q39 -35 90.5 -56t99.5 -21q57 0 86.5 27.5 t29.5 73.5q0 38 -25.5 63.5t-86.5 63.5q-72 43 -107 86t-35 108q0 92 68 156.5t171 64.5q114 0 204 -66z" />
<glyph unicode="&#x15b;" horiz-adv-x="384" d="M427 571l-206 -92l-26 55l188 135zM374 390l-48 -80q-56 39 -104 39q-28 0 -43.5 -12t-15.5 -31q0 -12 11.5 -22.5t22.5 -15.5t37 -16q51 -23 76.5 -47t25.5 -69q0 -66 -48 -105t-121 -39q-99 0 -174 60l55 78q65 -51 122 -51q60 0 60 47q0 17 -16 28t-50 26q-5 2 -7 3 q-23 10 -36.5 18t-29.5 21t-23.5 31t-7.5 41q0 60 47.5 100.5t118.5 40.5q80 0 148 -45z" />
<glyph unicode="&#x15e;" horiz-adv-x="534" d="M311 -147q0 -45 -34 -76t-88 -31q-66 0 -126 41l38 59q48 -34 90 -34q18 0 30.5 9.5t12.5 26.5q0 39 -87 44l-4 9l44 93q-103 18 -181 82l57 103q39 -35 90.5 -56t99.5 -21q57 0 86.5 27.5t29.5 73.5q0 38 -25.5 63.5t-86.5 63.5q-72 43 -107 86t-35 108q0 92 68 156.5 t171 64.5q114 0 204 -66l-55 -106q-75 60 -155 60q-51 0 -78.5 -27.5t-27.5 -68.5q0 -35 24 -58t88 -62q71 -44 107 -88.5t36 -109.5q0 -97 -66.5 -164t-182.5 -67h-10l-18 -44q91 -24 91 -91z" />
<glyph unicode="&#x15f;" horiz-adv-x="384" d="M247 -147q0 -45 -34 -76t-88 -31q-66 0 -126 41l38 59q48 -34 90 -34q18 0 30.5 9.5t12.5 26.5q0 39 -87 44l-4 9l45 95q-73 10 -131 56l55 78q65 -51 122 -51q60 0 60 47q0 17 -16 28t-50 26q-5 2 -7 3q-23 10 -36.5 18t-29.5 21t-23.5 31t-7.5 41q0 60 47.5 100.5 t118.5 40.5q80 0 148 -45l-48 -80q-56 39 -104 39q-28 0 -43.5 -12t-15.5 -31q0 -12 11.5 -22.5t22.5 -15.5t37 -16q51 -23 76.5 -47t25.5 -69q0 -63 -45.5 -102t-114.5 -42l-20 -48q91 -24 91 -91z" />
<glyph unicode="&#x160;" horiz-adv-x="534" d="M582 979l-183 -177h-45l-110 177h101l49 -83l80 83h108zM558 679l-55 -106q-75 60 -155 60q-51 0 -78.5 -27.5t-27.5 -68.5q0 -35 24 -58t88 -62q71 -44 107 -88.5t36 -109.5q0 -97 -66.5 -164t-182.5 -67q-66 0 -130.5 24.5t-111.5 63.5l57 103q39 -35 90.5 -56 t99.5 -21q57 0 86.5 27.5t29.5 73.5q0 38 -25.5 63.5t-86.5 63.5q-72 43 -107 86t-35 108q0 92 68 156.5t171 64.5q114 0 204 -66z" />
<glyph unicode="&#x161;" horiz-adv-x="384" d="M456 667l-183 -177h-45l-110 177h101l49 -83l80 83h108zM374 390l-48 -80q-56 39 -104 39q-28 0 -43.5 -12t-15.5 -31q0 -12 11.5 -22.5t22.5 -15.5t37 -16q51 -23 76.5 -47t25.5 -69q0 -66 -48 -105t-121 -39q-99 0 -174 60l55 78q65 -51 122 -51q60 0 60 47 q0 17 -16 28t-50 26q-5 2 -7 3q-23 10 -36.5 18t-29.5 21t-23.5 31t-7.5 41q0 60 47.5 100.5t118.5 40.5q80 0 148 -45z" />
<glyph unicode="&#x162;" horiz-adv-x="622" d="M311 -143q0 -50 -45 -98.5t-111 -80.5l-11 19q67 49 92 102q-53 15 -53 63q0 27 19.5 46t45.5 19q28 0 45.5 -19.5t17.5 -50.5zM698 733l-22 -114h-225l-121 -619h-124l121 619h-225l22 114h574z" />
<glyph unicode="&#x163;" horiz-adv-x="336" d="M202 -143q0 -50 -45 -98.5t-111 -80.5l-11 19q67 49 92 102q-53 15 -53 63q0 27 19.5 46t45.5 19q28 0 45.5 -19.5t17.5 -50.5zM350 427l-18 -92h-114l-38 -193q0 -2 -1 -10.5t-1 -9.5q0 -35 51 -35q16 0 46 5l-17 -89q-39 -11 -75 -11q-117 0 -117 102q0 23 4 46l38 195 h-86l2 14l102 82l16 79l120 46l-26 -129h114z" />
<glyph unicode="&#x164;" horiz-adv-x="622" d="M631 979l-183 -177h-45l-110 177h101l49 -83l80 83h108zM698 733l-22 -114h-225l-121 -619h-124l121 619h-225l22 114h574z" />
<glyph unicode="&#x165;" horiz-adv-x="336" d="M374 697l88 -21q-22 -127 -134 -193l-46 37q69 61 92 177zM350 427l-18 -92h-114l-38 -193q0 -2 -1 -10.5t-1 -9.5q0 -35 51 -35q16 0 46 5l-17 -89q-39 -11 -75 -11q-117 0 -117 102q0 23 4 46l38 195h-86l2 14l102 82l16 79l120 46l-26 -129h114z" />
<glyph unicode="&#x16a;" horiz-adv-x="712" d="M740 733l-92 -473q-26 -134 -106 -203t-208 -69q-118 0 -186 61.5t-68 172.5q0 41 9 83l83 428h124l-84 -435q-6 -34 -6 -61q0 -65 36 -100.5t104 -35.5q147 0 181 181l89 451h124zM627 896l-17 -86h-283l17 86h283z" />
<glyph unicode="&#x16b;" d="M481 427l-83 -427h-110l15 73q-88 -81 -165 -81q-51 0 -78.5 30.5t-27.5 81.5q0 21 5 44l54 279h114l-50 -255q-4 -19 -4 -35q0 -50 50 -50q48 0 112 57l54 283h114zM462 591l-17 -86h-283l17 86h283z" />
<glyph unicode="&#x16c;" horiz-adv-x="712" d="M740 733l-92 -473q-26 -134 -106 -203t-208 -69q-118 0 -186 61.5t-68 172.5q0 41 9 83l83 428h124l-84 -435q-6 -34 -6 -61q0 -65 36 -100.5t104 -35.5q147 0 181 181l89 451h124zM655 952q-32 -162 -183 -162q-68 0 -106 34t-38 91q0 20 4 37l87 6q-3 -9 -3 -29 q0 -66 63 -66q71 0 90 95z" />
<glyph unicode="&#x16d;" d="M481 427l-83 -427h-110l15 73q-88 -81 -165 -81q-51 0 -78.5 30.5t-27.5 81.5q0 21 5 44l54 279h114l-50 -255q-4 -19 -4 -35q0 -50 50 -50q48 0 112 57l54 283h114zM491 647q-32 -162 -183 -162q-68 0 -106 34t-38 91q0 20 4 37l87 6q-3 -9 -3 -29q0 -66 63 -66 q71 0 90 95z" />
<glyph unicode="&#x16e;" horiz-adv-x="712" d="M600 922q0 -51 -36 -91t-92 -40q-42 0 -70 28t-28 68q0 51 36 90.5t92 39.5q42 0 70 -27.5t28 -67.5zM535 916q0 46 -39 46q-23 0 -40 -19.5t-17 -49.5q0 -21 11 -33.5t29 -12.5q22 0 39 19.5t17 49.5zM740 733l-92 -473q-26 -134 -106 -203t-208 -69q-118 0 -186 61.5 t-68 172.5q0 41 9 83l83 428h124l-84 -435q-6 -34 -6 -61q0 -65 36 -100.5t104 -35.5q147 0 181 181l89 451h124z" />
<glyph unicode="&#x16f;" d="M435 617q0 -51 -36 -91t-92 -40q-42 0 -70 28t-28 68q0 51 36 90.5t92 39.5q42 0 70 -27.5t28 -67.5zM370 611q0 46 -39 46q-23 0 -40 -19.5t-17 -49.5q0 -22 11 -34t29 -12q22 0 39 19.5t17 49.5zM481 427l-83 -427h-110l15 73q-88 -81 -165 -81q-51 0 -78.5 30.5 t-27.5 81.5q0 21 5 44l54 279h114l-50 -255q-4 -19 -4 -35q0 -50 50 -50q48 0 112 57l54 283h114z" />
<glyph unicode="&#x170;" horiz-adv-x="712" d="M740 733l-92 -473q-26 -134 -106 -203t-208 -69q-118 0 -186 61.5t-68 172.5q0 41 9 83l83 428h124l-84 -435q-6 -34 -6 -61q0 -65 36 -100.5t104 -35.5q147 0 181 181l89 451h124zM559 946l-167 -155l-38 37l138 182zM718 936l-169 -154l-37 38l139 180z" />
<glyph unicode="&#x171;" d="M481 427l-83 -427h-110l15 73q-88 -81 -165 -81q-51 0 -78.5 30.5t-27.5 81.5q0 21 5 44l54 279h114l-50 -255q-4 -19 -4 -35q0 -50 50 -50q48 0 112 57l54 283h114zM395 641l-167 -155l-38 37l138 182zM554 631l-169 -154l-37 38l139 180z" />
<glyph unicode="&#x172;" horiz-adv-x="712" d="M740 733l-92 -473q-25 -126 -97 -194.5t-188 -76.5q-73 -68 -73 -110q0 -29 28 -29q22 0 50 24l25 -47q-52 -48 -112 -49q-37 0 -57 19t-20 52q0 67 83 142q-97 11 -152 71t-55 160q0 41 9 83l83 428h124l-84 -435q-6 -34 -6 -61q0 -65 36 -100.5t104 -35.5 q147 0 181 181l89 451h124z" />
<glyph unicode="&#x173;" d="M481 427l-83 -427h-34q-1 -1 -10.5 -10l-12.5 -12l-12 -12.5t-12.5 -14l-11 -13.5t-10.5 -15t-7.5 -14t-6 -15.5t-1.5 -14.5q0 -29 28 -29q20 0 49 24l25 -47q-51 -48 -112 -49q-36 0 -56 19t-20 52q0 71 94 151l15 73q-88 -81 -165 -81q-51 0 -78.5 30.5t-27.5 81.5 q0 21 5 44l54 279h114l-50 -255q-4 -19 -4 -35q0 -50 50 -50q48 0 112 57l54 283h114z" />
<glyph unicode="&#x174;" horiz-adv-x="956" d="M754 803h-100l-49 83l-81 -83h-108l183 177h46zM1049 733l-376 -745l-19 -2l-124 508l-316 -508l-20 2l-87 745h139l38 -459l284 465h15l112 -467l213 461h141z" />
<glyph unicode="&#x175;" horiz-adv-x="628" d="M531 491h-100l-49 83l-81 -83h-108l183 177h46zM664 427l-246 -438h-20l-80 259l-177 -259h-20l-78 438h119l27 -240l155 241h20l62 -241l114 240h124z" />
<glyph unicode="&#x176;" horiz-adv-x="630" d="M728 733l-332 -427l-60 -306h-124l60 308l-168 425h135l118 -312l228 312h143zM595 796h-100l-49 83l-81 -83h-108l183 177h46z" />
<glyph unicode="&#x177;" horiz-adv-x="447" d="M488 427l-416 -643h-113l177 265l-96 378h119l51 -270l155 270h123zM440 491h-100l-49 83l-81 -83h-108l183 177h46z" />
<glyph unicode="&#x178;" horiz-adv-x="630" d="M728 733l-332 -427l-60 -306h-124l60 308l-168 425h135l118 -312l228 312h143zM413 860q0 -25 -18.5 -43t-43.5 -18t-42.5 18t-17.5 43q0 26 17.5 44t42.5 18t43.5 -18t18.5 -44zM595 860q0 -25 -18 -43t-43 -18t-43 18t-18 43t18 43.5t43 18.5t43 -18t18 -44z" />
<glyph unicode="&#x179;" horiz-adv-x="633" d="M606 883l-206 -92l-26 55l188 135zM701 718l-490 -604h364l-22 -114h-561l-2 15l491 604h-347l22 114h543z" />
<glyph unicode="&#x17a;" horiz-adv-x="417" d="M436 571l-206 -92l-26 55l188 135zM435 412l-277 -319h210l-18 -93h-371l-2 15l277 319h-196l18 93h357z" />
<glyph unicode="&#x17b;" horiz-adv-x="633" d="M701 718l-490 -604h364l-22 -114h-561l-2 15l491 604h-347l22 114h543zM504 867q0 -25 -18 -43t-43 -18t-43 18t-18 43t18 43.5t43 18.5t43 -18t18 -44z" />
<glyph unicode="&#x17c;" horiz-adv-x="417" d="M435 412l-277 -319h210l-18 -93h-371l-2 15l277 319h-196l18 93h357zM334 555q0 -25 -18 -43t-43 -18t-43 18t-18 43t18 43.5t43 18.5t43 -18t18 -44z" />
<glyph unicode="&#x17d;" horiz-adv-x="633" d="M635 979l-183 -177h-45l-110 177h101l49 -83l80 83h108zM701 718l-490 -604h364l-22 -114h-561l-2 15l491 604h-347l22 114h543z" />
<glyph unicode="&#x17e;" horiz-adv-x="417" d="M466 667l-183 -177h-45l-110 177h101l49 -83l80 83h108zM435 412l-277 -319h210l-18 -93h-371l-2 15l277 319h-196l18 93h357z" />
<glyph unicode="&#x192;" horiz-adv-x="420" d="M455 578l-34 -101q-18 5 -41 5q-35 0 -57 -22t-38 -75l-12 -42h86l-17 -93h-97l-76 -250h-112l75 250h-78l1 7l106 88l13 43q32 107 82 153.5t132 46.5q37 0 67 -10z" />
<glyph unicode="&#x1fa;" horiz-adv-x="678" d="M669 1060l-206 -92l-26 55l188 135zM565 829q0 -45 -29.5 -82.5t-76.5 -45.5l175 -701h-128l-35 168h-279l-102 -168h-132l448 703q-30 9 -48.5 34t-18.5 58q0 51 36 90.5t92 39.5q42 0 70 -28t28 -68zM450 267l-52 243l-147 -243h199zM500 824q0 21 -11 33.5t-29 12.5 q-22 0 -39 -20t-17 -50q0 -21 10.5 -33.5t28.5 -12.5q23 0 40 20t17 50z" />
<glyph unicode="&#x1fb;" horiz-adv-x="448" d="M410 296q0 -29 -7 -66l-46 -230h-107l7 37q-56 -45 -120 -45q-53 0 -89.5 33t-36.5 89q0 63 46 104.5t122 41.5q64 0 111 -31l4 21q4 24 4 29q0 31 -21.5 49t-61.5 18q-39 0 -101 -20l-7 86q74 23 138 23q165 0 165 -139zM277 161q-34 27 -82 27q-35 0 -56.5 -18.5 t-21.5 -47.5q0 -25 17 -40.5t46 -15.5q43 0 86 38zM513 848l-206 -92l-26 55l188 135zM409 617q0 -51 -36 -91t-92 -40q-42 0 -70 28t-28 68q0 51 36 90.5t92 39.5q42 0 70 -27.5t28 -67.5zM344 611q0 46 -39 46q-23 0 -40 -19.5t-17 -49.5q0 -22 11 -34t29 -12 q22 0 39 19.5t17 49.5z" />
<glyph unicode="&#x1fc;" horiz-adv-x="992" d="M926 883l-206 -92l-26 55l188 135zM1027 733l-22 -114h-307l-37 -192h276l-22 -110h-275l-39 -203h306l-23 -114h-430l35 180h-239l-154 -180h-142l637 733h436zM509 283l53 269l-227 -269h174z" />
<glyph unicode="&#x1fd;" horiz-adv-x="720" d="M150 -8q-60 0 -99.5 33t-39.5 89q0 63 46 104.5t122 41.5q64 0 111 -31l5 24q3 24 3 25q0 69 -83 69q-41 0 -101 -20l-8 83q72 25 139 25q102 0 132 -64q67 64 151 64q80 0 123.5 -48.5t43.5 -124.5q0 -34 -13 -78h-290v-8q3 -95 114 -95q42 0 107 17l12 -83 q-67 -23 -141 -23q-121 0 -169 76q-71 -76 -165 -76zM578 571l-206 -92l-26 55l188 135zM182 68q34 0 63.5 21.5t44.5 56.5q-32 42 -95 42q-34 0 -56 -18t-22 -46q0 -25 17.5 -40.5t47.5 -15.5zM402 254h188q1 6 1 16q0 33 -19.5 54.5t-55.5 21.5q-37 0 -68 -25.5t-46 -66.5 z" />
<glyph unicode="&#x1fe;" horiz-adv-x="832" d="M812 421q0 -109 -49 -207t-144.5 -162t-214.5 -64q-141 0 -230 81l-88 -75l-57 70l89 76q-42 75 -42 172q0 81 29.5 158.5t81 139t130 98.5t168.5 37q141 0 230 -83l88 76l57 -69l-90 -77q42 -75 42 -171zM206 320q0 -49 14 -93l402 354q-54 54 -144 54q-116 0 -194 -92 t-78 -223zM683 413q0 49 -14 91l-403 -353q54 -54 145 -53q116 0 194 92t78 223zM705 883l-206 -92l-26 55l188 135z" />
<glyph unicode="&#x1ff;" horiz-adv-x="500" d="M464 248q0 -50 -20.5 -100t-56.5 -86q-70 -70 -165 -70q-85 0 -136 51l-61 -51l-35 40l65 54q-21 40 -21 93q0 50 20.5 100t56.5 86q68 70 165 70q85 0 136 -51l63 51l33 -40l-65 -54q21 -41 21 -93zM480 571l-206 -92l-26 55l188 135zM146 162l187 156q-22 30 -65 30 q-41 0 -75 -34q-48 -48 -48 -133q0 -13 1 -19zM353 247q0 3 -0.5 9t-0.5 9l-187 -156q21 -29 65 -29q40 0 75 33q48 50 48 134z" />
<glyph unicode="&#x218;" horiz-adv-x="534" d="M262 -143q0 -50 -45 -98.5t-111 -80.5l-11 19q67 49 92 102q-53 15 -53 63q0 27 19.5 46t45.5 19q28 0 45.5 -19.5t17.5 -50.5zM558 679l-55 -106q-75 60 -155 60q-51 0 -78.5 -27.5t-27.5 -68.5q0 -35 24 -58t88 -62q71 -44 107 -88.5t36 -109.5q0 -97 -66.5 -164 t-182.5 -67q-66 0 -130.5 24.5t-111.5 63.5l57 103q39 -35 90.5 -56t99.5 -21q57 0 86.5 27.5t29.5 73.5q0 38 -25.5 63.5t-86.5 63.5q-72 43 -107 86t-35 108q0 92 68 156.5t171 64.5q114 0 204 -66z" />
<glyph unicode="&#x219;" horiz-adv-x="384" d="M197 -143q0 -50 -45 -98.5t-111 -80.5l-11 19q67 49 92 102q-53 15 -53 63q0 27 19.5 46t45.5 19q28 0 45.5 -19.5t17.5 -50.5zM374 390l-48 -80q-56 39 -104 39q-28 0 -43.5 -12t-15.5 -31q0 -12 11.5 -22.5t22.5 -15.5t37 -16q51 -23 76.5 -47t25.5 -69q0 -66 -48 -105 t-121 -39q-99 0 -174 60l55 78q65 -51 122 -51q60 0 60 47q0 17 -16 28t-50 26q-5 2 -7 3q-23 10 -36.5 18t-29.5 21t-23.5 31t-7.5 41q0 60 47.5 100.5t118.5 40.5q80 0 148 -45z" />
<glyph unicode="&#x259;" horiz-adv-x="472" d="M236 435q93 0 147 -46.5t54 -137.5q0 -100 -70 -179.5t-173 -79.5q-80 0 -124 48.5t-44 124.5q0 37 12 78h290v8q-3 95 -113 95q-42 0 -108 -17l-12 83q67 23 141 23zM318 173h-188q-1 -6 -1 -18q1 -32 20.5 -53t54.5 -21q38 0 68.5 25.5t45.5 66.5z" />
<glyph unicode="&#x2c6;" horiz-adv-x="470" d="M458 491h-100l-49 83l-81 -83h-108l183 177h46z" />
<glyph unicode="&#x2c7;" horiz-adv-x="470" d="M488 667l-183 -177h-45l-110 177h101l49 -83l80 83h108z" />
<glyph unicode="&#x2d8;" horiz-adv-x="470" d="M474 647q-32 -162 -183 -162q-68 0 -106 34t-38 91q0 20 4 37l87 6q-3 -9 -3 -29q0 -66 63 -66q71 0 90 95z" />
<glyph unicode="&#x2d9;" horiz-adv-x="440" d="M348 555q0 -25 -18 -43t-43 -18t-43 18t-18 43t18 43.5t43 18.5t43 -18t18 -44z" />
<glyph unicode="&#x2da;" horiz-adv-x="470" d="M417 617q0 -51 -36 -91t-92 -40q-42 0 -70 28t-28 68q0 51 36 90.5t92 39.5q42 0 70 -27.5t28 -67.5zM352 611q0 46 -39 46q-23 0 -40 -19.5t-17 -49.5q0 -22 11 -34t29 -12q22 0 39 19.5t17 49.5z" />
<glyph unicode="&#x2db;" horiz-adv-x="470" d="M301 -173q-51 -48 -112 -49q-36 0 -56 19t-20 52q0 48 35.5 91.5t104.5 97.5l37 -31l-19.5 -19t-25 -25.5t-21.5 -25.5t-18.5 -30t-6.5 -28q0 -29 28 -29q21 0 49 24z" />
<glyph unicode="&#x2dc;" horiz-adv-x="470" d="M472 562q-58 -63 -117 -63q-29 0 -69 21q-32 17 -51 17q-30 0 -70 -37l-32 63q56 59 113 59q29 0 69 -21q34 -18 51 -18q31 0 73 41z" />
<glyph unicode="&#x2dd;" horiz-adv-x="470" d="M331 641l-167 -155l-38 37l138 182zM490 631l-169 -154l-37 38l139 180z" />
<glyph unicode="&#x326;" horiz-adv-x="225" d="M192 -143q0 -50 -45 -98.5t-111 -80.5l-11 19q67 49 92 102q-53 15 -53 63q0 27 19.5 46t45.5 19q28 0 45.5 -19.5t17.5 -50.5z" />
<glyph unicode="&#x1e80;" horiz-adv-x="956" d="M1049 733l-376 -745l-19 -2l-124 508l-316 -508l-20 2l-87 745h139l38 -459l284 465h15l112 -467l213 461h141zM652 840l-38 -49l-175 104l67 86z" />
<glyph unicode="&#x1e81;" horiz-adv-x="628" d="M664 427l-246 -438h-20l-80 259l-177 -259h-20l-78 438h119l27 -240l155 241h20l62 -241l114 240h124zM429 528l-38 -49l-175 104l67 86z" />
<glyph unicode="&#x1e82;" horiz-adv-x="956" d="M765 883l-206 -92l-26 55l188 135zM1049 733l-376 -745l-19 -2l-124 508l-316 -508l-20 2l-87 745h139l38 -459l284 465h15l112 -467l213 461h141z" />
<glyph unicode="&#x1e83;" horiz-adv-x="628" d="M543 571l-206 -92l-26 55l188 135zM664 427l-246 -438h-20l-80 259l-177 -259h-20l-78 438h119l27 -240l155 241h20l62 -241l114 240h124z" />
<glyph unicode="&#x1e84;" horiz-adv-x="956" d="M572 867q0 -25 -18.5 -43t-43.5 -18t-42.5 18t-17.5 43q0 26 17.5 44t42.5 18q26 0 44 -18.5t18 -43.5zM754 867q0 -25 -18 -43t-43 -18t-43 18t-18 43t18 43.5t43 18.5t43 -18t18 -44zM1049 733l-376 -745l-19 -2l-124 508l-316 -508l-20 2l-87 745h139l38 -459l284 465 h15l112 -467l213 461h141z" />
<glyph unicode="&#x1e85;" horiz-adv-x="628" d="M349 555q0 -25 -18.5 -43t-43.5 -18t-42.5 18t-17.5 43q0 26 17.5 44t42.5 18t43.5 -18.5t18.5 -43.5zM531 555q0 -25 -18 -43t-43 -18t-43 18t-18 43t18 43.5t43 18.5t43 -18t18 -44zM664 427l-246 -438h-20l-80 259l-177 -259h-20l-78 438h119l27 -240l155 241h20 l62 -241l114 240h124z" />
<glyph unicode="&#x1ef2;" horiz-adv-x="630" d="M728 733l-332 -427l-60 -306h-124l60 308l-168 425h135l118 -312l228 312h143zM493 833l-38 -49l-175 104l67 86z" />
<glyph unicode="&#x1ef3;" horiz-adv-x="447" d="M488 427l-416 -643h-113l177 265l-96 378h119l51 -270l155 270h123zM338 528l-38 -49l-175 104l67 86z" />
<glyph unicode="&#x2002;" horiz-adv-x="500" />
<glyph unicode="&#x2003;" horiz-adv-x="1000" />
<glyph unicode="&#x2004;" horiz-adv-x="333" />
<glyph unicode="&#x2005;" horiz-adv-x="250" />
<glyph unicode="&#x2007;" horiz-adv-x="520" />
<glyph unicode="&#x2009;" horiz-adv-x="133" />
<glyph unicode="&#x200a;" horiz-adv-x="75" />
<glyph unicode="&#x2013;" horiz-adv-x="486" d="M449 283l-15 -77h-386l16 77h385z" />
<glyph unicode="&#x2014;" horiz-adv-x="736" d="M699 283l-15 -77h-636l16 77h635z" />
<glyph unicode="&#x2018;" horiz-adv-x="192" d="M223 580q0 -25 -18 -43t-43 -18q-26 0 -42.5 17.5t-16.5 46.5q0 90 146 165l10 -18q-57 -41 -84 -91q48 -15 48 -59z" />
<glyph unicode="&#x2019;" horiz-adv-x="192" d="M248 681q0 -48 -41 -90.5t-105 -74.5l-10 18q56 39 84 91q-48 13 -48 59q0 25 18 43t43 18q26 0 42.5 -17.5t16.5 -46.5z" />
<glyph unicode="&#x201a;" horiz-adv-x="213" d="M135 54q0 -48 -41 -90.5t-106 -74.5l-10 18q57 40 84 91q-48 15 -48 59q0 25 18.5 43t43.5 18t42 -17.5t17 -46.5z" />
<glyph unicode="&#x201c;" horiz-adv-x="348" d="M384 580q0 -25 -18.5 -43t-43.5 -18t-42 17.5t-17 46.5q0 89 146 165l11 -18q-59 -42 -84 -91q48 -15 48 -59zM223 580q0 -25 -18 -43t-43 -18q-26 0 -42.5 17.5t-16.5 46.5q0 90 146 165l10 -18q-57 -41 -84 -91q48 -15 48 -59z" />
<glyph unicode="&#x201d;" horiz-adv-x="353" d="M409 681q0 -48 -41 -90.5t-105 -74.5l-11 18q57 40 84 91q-48 13 -48 59q0 25 18.5 43t43.5 18t42 -17.5t17 -46.5zM248 681q0 -48 -41 -90.5t-105 -74.5l-10 18q56 39 84 91q-48 13 -48 59q0 25 18 43t43 18q26 0 42.5 -17.5t16.5 -46.5z" />
<glyph unicode="&#x201e;" horiz-adv-x="374" d="M295 54q0 -48 -41 -90.5t-105 -74.5l-10 18q56 39 84 91q-48 15 -48 59q0 25 18 43t43 18q26 0 42.5 -17.5t16.5 -46.5zM135 54q0 -48 -41 -90.5t-106 -74.5l-10 18q57 40 84 91q-48 15 -48 59q0 25 18.5 43t43.5 18t42 -17.5t17 -46.5z" />
<glyph unicode="&#x2020;" horiz-adv-x="441" d="M478 569l-19 -95h-134l-63 -327h-103l63 327h-139l19 95h138l32 164h103l-32 -164h135z" />
<glyph unicode="&#x2021;" horiz-adv-x="441" d="M483 597l-18 -95h-135l-24 -123h140l-19 -96h-139l-27 -136h-102l26 136h-134l19 96h134l24 123h-140l19 95h139l27 136h102l-26 -136h134z" />
<glyph unicode="&#x2022;" horiz-adv-x="431" d="M406 366q0 -68 -47 -116t-114 -48t-114.5 48t-47.5 116q0 69 47 117t115 48q67 0 114 -48t47 -117z" />
<glyph unicode="&#x2026;" horiz-adv-x="769" d="M167 56q0 -26 -19 -45t-45 -19t-45 19t-19 45q0 27 19 45.5t45 18.5t45 -18.5t19 -45.5zM419 56q0 -26 -19 -45t-45 -19t-45 19t-19 45q0 27 19 45.5t45 18.5t45 -18.5t19 -45.5zM671 56q0 -26 -19 -45t-45 -19t-45 19t-19 45q0 27 19 45.5t45 18.5t45 -18.5t19 -45.5z " />
<glyph unicode="&#x2030;" horiz-adv-x="1003" d="M352 469q0 -79 -52 -131q-42 -42 -104 -42q-53 0 -84.5 35.5t-31.5 88.5q0 79 52 131q42 42 104 42q53 0 84.5 -35.5t31.5 -88.5zM682 554l-586 -572l-45 47l585 572zM275 467q0 29 -12 45t-34 16q-23 0 -41 -18q-31 -31 -31 -88q0 -28 12.5 -44.5t34.5 -16.5t40 18 q31 31 31 88zM652 163q0 -79 -52 -131q-43 -43 -104 -43q-53 0 -84.5 35.5t-31.5 89.5q0 79 52 131q42 42 104 42q53 0 84.5 -35.5t31.5 -88.5zM575 161q0 29 -12 45t-34 16q-23 0 -41 -18q-31 -31 -31 -88q0 -28 12.5 -44.5t34.5 -16.5t40 18q31 31 31 88zM962 163 q0 -79 -52 -131q-43 -43 -104 -43q-53 0 -84.5 35.5t-31.5 89.5q0 79 52 131q42 42 104 42q53 0 84.5 -35.5t31.5 -88.5zM885 161q0 28 -12.5 44.5t-34.5 16.5t-40 -18q-31 -31 -31 -88q0 -29 12 -45t34 -16q23 0 41 18q31 31 31 88z" />
<glyph unicode="&#x2039;" horiz-adv-x="303" d="M283 336l-142 -167l77 -160h-105l-73 164l137 163h106z" />
<glyph unicode="&#x203a;" horiz-adv-x="303" d="M244 172l-137 -163h-106l142 168l-77 159h105z" />
<glyph unicode="&#x2044;" horiz-adv-x="578" d="M621 554l-585 -572l-46 47l585 572z" />
<glyph unicode="&#x20ac;" horiz-adv-x="635" d="M41 259h64q2 36 7 64h-58l14 75h69q42 88 124.5 141.5t182.5 53.5q108 0 185 -54l-51 -88q-64 44 -143 44q-116 0 -180 -97h264l-14 -75h-284q-7 -28 -7 -62v-2h278l-14 -74h-251q39 -97 162 -97q70 0 141 37l20 -90q-87 -45 -176 -45q-98 0 -170 53t-92 142h-84z" />
<glyph unicode="&#x2117;" horiz-adv-x="842" d="M621 446q0 -70 -52 -110.5t-128 -40.5q-21 0 -35 1l-22 -116h-77l73 373q57 6 97 6q68 0 106 -31t38 -82zM542 435q0 53 -69 53q-18 0 -30 -2l-24 -124q12 -1 27 -1q40 0 68 19.5t28 54.5zM769 415q0 125 -75 201t-195 76q-151 0 -254.5 -110.5t-103.5 -263.5 q0 -124 76 -200.5t194 -76.5q151 0 254.5 111t103.5 263zM832 416q0 -82 -32 -159.5t-87 -137t-135 -96t-170 -36.5q-146 0 -238 92.5t-92 236.5q0 111 54 209.5t152.5 159.5t217.5 61q146 0 238 -92.5t92 -237.5z" />
<glyph unicode="&#x2120;" d="M179 508q-49 0 -84 27l26 40q31 -22 59 -22q26 0 26 20q0 9 -6 15t-27 18q-24 15 -34 27.5t-10 32.5q0 30 22 50.5t59 20.5q45 0 71 -22l-25 -41q-24 20 -49 20t-25 -19q0 -9 6.5 -15t29.5 -19q42 -24 42 -61q0 -29 -21.5 -50.5t-59.5 -21.5zM517 511h-50l19 109l-77 -78 h-5l-47 78l-23 -109h-50l54 224h6l75 -126l124 126h7z" />
<glyph unicode="&#x2122;" horiz-adv-x="508" d="M530 511h-49l18 109l-76 -78h-6l-46 78l-24 -109h-50l54 224h7l74 -126l124 126h7zM288 683h-66l-34 -172h-53l33 172h-66l10 50h185z" />
<glyph unicode="&#x2190;" horiz-adv-x="708" d="M656 199h-463l124 -134l-71 -64l-208 237l3 13l300 237l53 -73l-169 -125h449z" />
<glyph unicode="&#x2192;" horiz-adv-x="708" d="M65 290h463l-124 134l71 64l208 -237l-3 -13l-300 -237l-53 73l169 125h-449z" />
<glyph unicode="&#x2212;" horiz-adv-x="439" d="M55 245l17 87h339l-17 -87h-339z" />
<glyph unicode="&#xe000;" horiz-adv-x="425" d="M0 425h425v-425h-425v425z" />
<glyph horiz-adv-x="801" d="M803 378q-24 -185 -125 -287.5t-260 -102.5q-145 0 -243.5 90.5t-98.5 237.5q0 183 125 306t299 123q137 0 238 -71l-66 -99q-78 55 -184 55q-122 0 -201.5 -90t-79.5 -215q0 -104 62 -165.5t165 -61.5q77 0 137 47.5t83 124.5h-250l21 108h378z" />
<glyph horiz-adv-x="865" d="M866 742l-113 -742h-123l77 444l-278 -315h-14l-169 328l-96 -457h-122l175 742l18 2l229 -452l396 452z" />
<glyph horiz-adv-x="684" d="M536 457q0 79 -30 129t-97 50q-53 0 -97 -44q-51 -51 -79.5 -143t-28.5 -173q0 -79 30 -129t97 -50q54 0 97 45q51 50 79.5 142.5t28.5 172.5zM662 455q0 -105 -37 -209t-106 -173q-85 -85 -197 -85q-117 0 -180.5 80t-63.5 210q0 105 37 209.5t106 172.5q83 85 197 85 q117 0 180.5 -80t63.5 -210z" />
<glyph horiz-adv-x="438" d="M425 747l-145 -747h-121l116 593l-143 -51l-20 106l278 99h35z" />
<glyph horiz-adv-x="577" d="M553 552q0 -66 -31 -122t-96 -122q-78 -80 -215 -198h286l-20 -110h-478l7 53q206 176 307 283q64 67 88 107t24 84q0 47 -32 76t-85 29q-72 0 -158 -50l-27 103q104 60 204 60q106 0 166 -54.5t60 -138.5z" />
<glyph horiz-adv-x="562" d="M607 733l-13 -69l-277 -239q90 -14 142 -66t52 -129q0 -102 -80 -172t-200 -70q-115 0 -227 57l48 100q96 -50 174 -50q68 0 112 35.5t44 90.5q0 53 -47 87t-134 34q-20 0 -47 -3l-13 49l268 236h-277l21 109h454z" />
<glyph horiz-adv-x="618" d="M610 290l-19 -100h-116l-36 -190h-121l37 190h-334l13 67l471 486h79l-90 -453h116zM375 290l51 241l-229 -241h178z" />
<glyph horiz-adv-x="585" d="M592 733l-20 -109h-284l-40 -176q11 1 24 1q122 0 190 -58t68 -148q0 -111 -82 -183t-211 -72q-111 0 -212 48l43 106q98 -46 173 -46q74 0 118 36.5t44 95.5q0 60 -50 93.5t-144 33.5q-50 0 -89 -6l-6 11l78 373h400z" />
<glyph horiz-adv-x="613" d="M567 256q0 -108 -76 -188t-195 -80q-109 0 -171.5 69.5t-62.5 170.5q0 158 124 299t373 234l35 -103q-110 -35 -206 -96.5t-148 -132.5q46 38 121 38q95 0 150.5 -62t55.5 -149zM441 246q0 56 -33.5 93t-87.5 37q-66 0 -101.5 -45.5t-35.5 -115.5q0 -54 34.5 -90.5 t84.5 -36.5q64 0 101.5 45.5t37.5 112.5z" />
<glyph horiz-adv-x="558" d="M639 733l-461 -733h-134l395 619h-331l23 114h508z" />
<glyph horiz-adv-x="607" d="M294 -12q-110 0 -175 55.5t-65 139.5q0 67 42 121t114 80q-77 54 -77 138q0 91 73.5 157t180.5 66q100 0 160.5 -53t60.5 -132q0 -66 -38 -119t-101 -79q88 -55 88 -147q0 -95 -74 -161t-189 -66zM433 221q0 47 -33.5 77t-86.5 30q-55 0 -92.5 -38t-37.5 -91 q0 -48 31.5 -79t84.5 -31q58 0 96 39.5t38 92.5zM487 539q0 47 -31 76.5t-80 29.5q-58 0 -92.5 -38.5t-35.5 -90.5q0 -46 31 -74.5t81 -28.5q56 0 91.5 36t35.5 90z" />
<glyph horiz-adv-x="611" d="M608 510q0 -73 -26.5 -144t-83 -142t-154 -136t-229.5 -115l-34 104q117 37 211.5 100t146.5 140q-49 -43 -121 -43q-94 0 -152.5 59.5t-58.5 149.5q0 107 73.5 184.5t191.5 77.5q108 0 172 -67t64 -168zM487 520q0 53 -33.5 89t-84.5 36q-63 0 -100.5 -44t-37.5 -116 q0 -53 32.5 -85.5t85.5 -32.5q66 0 102 43.5t36 109.5z" />
<glyph horiz-adv-x="761" d="M792 702l-721 -720l-51 48l723 720z" />
<glyph horiz-adv-x="720" d="M715 277q-56 -59 -147 -140q44 -46 82 -79l-92 -72q-41 36 -88 88q-122 -83 -227 -83q-96 0 -155 51t-59 138q0 164 211 225q-25 60 -25 113q0 91 66.5 157t165.5 66q84 0 134 -46.5t50 -114.5q0 -77 -59.5 -134.5t-172.5 -91.5q39 -68 100 -139q62 56 142 139zM402 145 q-75 91 -124 178q-54 -16 -84.5 -51.5t-30.5 -76.5q0 -43 27 -70t78 -27q67 0 134 47zM355 433q78 20 118 55.5t40 78.5q0 34 -19.5 55.5t-52.5 21.5q-45 0 -75.5 -37t-30.5 -84q0 -48 20 -90z" />
<glyph horiz-adv-x="472" d="M494 534l-142 -167l77 -160h-105l-73 164l137 163h106zM321 534l-142 -167l77 -160h-105l-73 164l137 163h106z" />
<glyph horiz-adv-x="472" d="M455 370l-137 -163h-106l142 168l-77 159h105zM282 370l-137 -163h-106l142 168l-77 159h105z" />
<glyph horiz-adv-x="303" d="M322 534l-142 -167l77 -160h-105l-73 164l137 163h106z" />
<glyph horiz-adv-x="303" d="M284 370l-137 -163h-106l142 168l-77 159h105z" />
<glyph horiz-adv-x="339" d="M329 414l-17 -87h-241l17 87h241z" />
<glyph horiz-adv-x="486" d="M474 409l-15 -77h-386l16 77h385z" />
<glyph horiz-adv-x="736" d="M724 409l-15 -77h-636l16 77h635z" />
<glyph horiz-adv-x="364" d="M467 840l-419 -949h-95l420 949h94z" />
<glyph horiz-adv-x="356" d="M291 -109h-87l-85 949h87z" />
<glyph horiz-adv-x="269" d="M117 -109h-86l185 949h86z" />
<glyph horiz-adv-x="390" d="M499 785q-158 -82 -241 -210.5t-83 -286.5q0 -203 157 -359l-62 -64q-193 188 -193 424q0 177 101 327t286 243z" />
<glyph horiz-adv-x="390" d="M367 435q0 -177 -101.5 -327.5t-285.5 -243.5l-35 74q158 82 241 211t83 287q0 203 -157 359l62 63q193 -187 193 -423z" />
<glyph horiz-adv-x="320" d="M419 840l-16 -87h-126l-151 -776h126l-17 -86h-220l184 949h220z" />
<glyph horiz-adv-x="320" d="M364 840l-184 -949h-221l17 87h126l151 776h-126l17 86h220z" />
<glyph horiz-adv-x="310" d="M421 847l-18 -93q-6 1 -18 1q-38 0 -59.5 -20t-30.5 -67l-37 -190q-10 -52 -30 -74.5t-65 -38.5q56 -23 56 -73q0 -15 -6 -45l-34 -172q-4 -16 -4 -33q0 -34 19 -49t59 -17l-17 -92q-80 4 -119 37.5t-39 101.5q0 22 7 57l34 177q3 24 3 26q0 44 -55 44h-20l16 81h21 q36 0 53.5 16.5t23.5 51.5l42 211q16 83 60 122t122 39q3 0 17.5 -0.5t18.5 -0.5z" />
<glyph horiz-adv-x="309" d="M-52 -117l18 93q6 -1 18 -1q38 0 59.5 20t30.5 67l37 190q10 52 30 74.5t65 38.5q-56 24 -56 74q0 15 6 44l34 172q4 16 4 33q0 34 -19 49t-59 17l17 92q80 -4 119 -37.5t39 -101.5q0 -22 -7 -57l-34 -176q-3 -24 -3 -26q0 -44 55 -44h20l-16 -82h-21q-36 0 -53.5 -16 t-23.5 -51l-42 -212q-16 -83 -60 -122t-123 -39q-3 0 -17 0.5t-18 0.5z" />
<glyph horiz-adv-x="863" d="M608 -1q-69 -11 -123 -11q-168 0 -280.5 94t-112.5 250q0 171 118 292t290 121q144 0 243 -90t99 -234q0 -99 -50 -170.5t-141 -71.5q-84 0 -102 65q-45 -60 -122 -60q-51 0 -85.5 25t-34.5 70q0 50 34.5 79.5t85.5 29.5q58 0 104 -29q5 18 5 33q0 56 -95 56 q-25 0 -57 -5l3 73q42 5 74 5q77 0 118.5 -29t41.5 -85q0 -17 -5 -39l-14 -65q-5 -27 9 -45.5t44 -18.5q40 0 68 30t38.5 69t10.5 81q0 120 -78.5 191t-199.5 71q-140 0 -235.5 -103t-95.5 -245q0 -131 94 -206t231 -75q59 0 114 13zM520 299q-28 28 -67 28q-25 0 -40 -12 t-15 -32q0 -19 15 -29.5t37 -10.5q42 0 68 45z" />
<glyph horiz-adv-x="842" d="M832 416q0 -82 -32 -159.5t-87 -137t-135 -96t-170 -36.5q-146 0 -238 92.5t-92 236.5q0 111 54 209.5t152.5 159.5t217.5 61q146 0 238 -92.5t92 -237.5zM769 415q0 125 -75 201t-195 76q-151 0 -254.5 -110.5t-103.5 -263.5q0 -124 76 -200.5t194 -76.5 q151 0 254.5 111t103.5 263zM610 450q0 -46 -26 -77t-66 -45l63 -148h-86l-46 128h-19q-21 0 -34 1l-25 -129h-77l73 373q66 6 100 6q69 0 106 -30.5t37 -78.5zM529 441q0 22 -17.5 36t-47.5 14q-20 0 -34 -3l-22 -117q24 -2 30 -2q40 0 65.5 19t25.5 53z" />
<glyph horiz-adv-x="534" d="M458 830l-26 -95q65 -16 121 -55l-54 -105q-44 35 -96 51l-56 -210q74 -46 111.5 -90t37.5 -110q0 -95 -68.5 -161.5t-181.5 -66.5q-3 0 -7.5 0.5t-6.5 0.5l-23 -90l-67 3l25 95q-92 21 -160 78l56 102q58 -52 133 -72l59 225q-74 45 -110.5 88t-36.5 109q0 91 69 154.5 t174 63.5q11 0 17 -1l23 89zM374 200q0 28 -15.5 49.5t-47.5 44.5l-51 -196q53 2 83.5 31.5t30.5 70.5zM230 540q0 -27 14.5 -47t46.5 -42l48 185q-52 -1 -80.5 -28.5t-28.5 -67.5z" />
<glyph horiz-adv-x="600" d="M644 674l-64 -101q-63 58 -132 58q-52 0 -86 -34t-46 -91l-19 -92h170l-20 -100h-170l-40 -206h297l-21 -108h-512l21 108h94l40 206h-88l3 15l103 83l22 108q20 103 85.5 164t172.5 61q108 0 190 -71z" />
<glyph horiz-adv-x="757" d="M81 490h87q51 115 156 185t232 70q135 0 233 -69l-60 -105q-80 57 -181 57q-78 0 -142.5 -37.5t-103.5 -100.5h347l-15 -78h-365q-11 -42 -11 -83v-6h360l-15 -77h-332q21 -66 77.5 -104t139.5 -38t180 51l27 -106q-107 -61 -226 -61q-130 0 -219.5 71t-112.5 187h-103 l16 77h81q0 43 11 89h-76z" />
<glyph horiz-adv-x="666" d="M744 733l-277 -351h155l-17 -86h-196l-17 -89h197l-17 -84h-197l-23 -123h-123l23 123h-201l17 84h201l17 89h-202l17 86h162l-143 351h135l117 -312l226 312h146z" />
<glyph horiz-adv-x="436" d="M397 664l-20 -77q46 -10 89 -40l-50 -80q-35 23 -63 29l-68 -254h5q44 0 91 21l19 -84q-64 -29 -131 -29h-8l-19 -75l-69 3l22 83q-58 19 -92 65t-34 116q0 98 67 172t172 79l20 74zM177 345q0 -61 44 -85l62 238q-49 -11 -77.5 -53.5t-28.5 -99.5z" />
<glyph horiz-adv-x="748" d="M756 552l-21 -97h-127l-40 -177h127l-22 -96h-126l-40 -182h-109l40 182h-154l-40 -182h-109l40 182h-128l22 96h127l39 177h-127l21 97h126l40 181h109l-39 -181h153l40 181h110l-40 -181h128zM505 455h-167l-41 -177h167z" />
<glyph horiz-adv-x="726" d="M741 707l-139 -707h-103l120 615q-33 8 -87 14l-123 -629h-104l41 206q-114 6 -192 68.5t-78 162.5q0 134 110.5 221t283.5 87q127 0 271 -38zM428 631q-98 -1 -158.5 -52t-60.5 -129q0 -56 42 -92t116 -41z" />
<glyph horiz-adv-x="556" d="M566 676l-59 -95q-75 59 -150 59q-34 0 -55 -14.5t-21 -37.5t25 -39.5t76 -37.5q5 -2 8 -3q32 -13 52.5 -23.5t44.5 -27.5t36 -38.5t12 -48.5q0 -82 -98 -130q32 -34 32 -76q0 -80 -62 -128t-156 -48q-66 0 -127 25.5t-105 66.5l70 92q33 -33 81 -55.5t89 -22.5 q35 0 56.5 14t21.5 41q0 14 -7.5 25.5t-27.5 23t-32 17t-43 17.5t-51 22t-43.5 26t-35 38t-11.5 49q0 85 94 133q-28 31 -28 69q0 78 61.5 127t153.5 49q56 0 109.5 -20t89.5 -49zM421 350q0 26 -32 46.5t-111 51.5l-17 7q-29 -6 -45.5 -25.5t-16.5 -40.5q0 -26 29 -45 t96 -46l37 -15q26 8 43 26t17 41z" />
<glyph horiz-adv-x="384" d="M401 632q0 -62 -43.5 -110.5t-110.5 -48.5q-50 0 -82 32.5t-32 80.5q0 62 43.5 110.5t111.5 48.5q49 0 81 -32.5t32 -80.5zM326 626q0 25 -13 40t-35 15q-28 0 -49 -26t-21 -62q0 -25 13.5 -40t35.5 -15q27 0 48 26t21 62z" />
<glyph horiz-adv-x="897" d="M363 582q0 38 -18.5 62.5t-52.5 24.5q-32 0 -56 -24q-40 -40 -40 -112q0 -38 18.5 -62.5t52.5 -24.5q32 0 56 24q40 40 40 112zM451 581q0 -98 -63 -161q-50 -50 -123 -50q-71 0 -114 45.5t-43 118.5q0 98 63 161q50 50 123 50q71 0 114 -45.5t43 -118.5zM756 200 q0 38 -18.5 62.5t-52.5 24.5t-57 -23q-40 -40 -40 -112q0 -38 18.5 -62.5t52.5 -24.5t57 23q40 40 40 112zM843 200q0 -98 -63 -161q-51 -51 -123 -51q-70 0 -113 45.5t-43 118.5q0 98 63 161q51 51 123 51q70 0 113 -45.5t43 -118.5zM867 706l-736 -726l-47 47l736 726z " />
<glyph horiz-adv-x="1290" d="M363 582q0 38 -18.5 62.5t-52.5 24.5q-32 0 -56 -24q-40 -40 -40 -112q0 -38 18.5 -62.5t52.5 -24.5q32 0 56 24q40 40 40 112zM451 581q0 -98 -63 -161q-50 -50 -123 -50q-71 0 -114 45.5t-43 118.5q0 98 63 161q50 50 123 50q71 0 114 -45.5t43 -118.5zM756 200 q0 38 -18.5 62.5t-52.5 24.5t-57 -23q-40 -40 -40 -112q0 -38 18.5 -62.5t52.5 -24.5t57 23q40 40 40 112zM843 200q0 -98 -63 -161q-51 -51 -123 -51q-70 0 -113 45.5t-43 118.5q0 98 63 161q51 51 123 51q70 0 113 -45.5t43 -118.5zM1149 200q0 38 -18.5 62.5t-52.5 24.5 q-33 0 -56 -23q-40 -40 -40 -112q0 -38 18.5 -62.5t52.5 -24.5q33 0 56 23q40 40 40 112zM1237 200q0 -98 -63 -161q-51 -51 -123 -51q-71 0 -114 45.5t-43 118.5q0 98 63 161q51 51 123 51q71 0 114 -45.5t43 -118.5zM867 706l-736 -726l-47 47l736 726z" />
<glyph horiz-adv-x="420" d="M308 706l-173 -192l-46 36l140 216zM487 696l-174 -193l-45 36l139 217z" />
<glyph horiz-adv-x="242" d="M308 706l-173 -192l-46 36l140 216z" />
<glyph horiz-adv-x="478" d="M448 414l-17 -87h-124l-26 -131h-91l26 131h-124l17 87h124l25 131h91l-25 -131h124z" />
<glyph horiz-adv-x="458" d="M92 327l17 87h339l-17 -87h-339z" />
<glyph horiz-adv-x="458" d="M300 229q0 -24 -17 -41.5t-42 -17.5t-42 17.5t-17 41.5q0 25 17 42.5t42 17.5t42 -17.5t17 -42.5zM92 329l16 84h339l-16 -84h-339zM356 512q0 -25 -17 -42t-42 -17t-42 17t-17 42q0 24 17 41.5t42 17.5t42 -17.5t17 -41.5z" />
<glyph horiz-adv-x="427" d="M391 332l-17 -84h-311l17 84h311zM422 493l-17 -85h-311l17 85h311z" />
<glyph horiz-adv-x="444" d="M391 536l51 -66l-125 -104l82 -106l-68 -57l-82 106l-125 -105l-51 65l125 105l-81 106l68 58l82 -106z" />
<glyph horiz-adv-x="394" d="M417 537l-219 -163l151 -183l-78 -62l-204 255l298 228z" />
<glyph horiz-adv-x="394" d="M384 358l-298 -229l-52 75l219 163l-151 184l78 61z" />
<glyph horiz-adv-x="518" d="M574 723l-42 -104q-41 15 -67 15q-102 0 -145 -137l-22 -69h135l-19 -101h-148l-101 -327h-123l102 327h-89l1 9l118 89l28 89q72 231 265 231q70 0 107 -22z" />
<glyph horiz-adv-x="708" d="M679 325h-463l124 -134l-71 -64l-208 237l3 13l300 237l53 -73l-169 -125h449z" />
<glyph horiz-adv-x="708" d="M90 416h463l-124 134l71 64l208 -237l-3 -13l-300 -237l-53 73l169 125h-449z" />
<glyph horiz-adv-x="694" d="M644 -200h-208l-8 14h-163l-8 -14h-207v303q14 0 23 9.5t9 22.5t-9.5 22.5t-22.5 9.5v554h100l30 79h334l29 -79h101v-921zM400 563v-172h15v78h38v14h-38v66h43v14h-58zM184 563v-172h15v79h47v-79h15v172h-15v-79h-47v79h-15zM460 394q8 -4 21 -4q31 0 31 36v137h-16 v-137q0 -22 -16 -22q-10 0 -20 6v-16zM349 438l-16 31q23 21 23 42q0 12 -7 21.5t-20 9.5q-12 0 -20 -9.5t-8 -21.5q0 -13 14 -39q-23 -18 -23 -45q0 -17 9 -28t22 -11q17 0 27 24h1l12 -24l11 8l-16 30q10 23 13 39l-13 3q-2 -9 -9 -30zM523 323v-46h8v13l7 7l16 -20h9 l-19 26l18 20h-10l-21 -24v24h-8zM488 292l10 -15h9l-12 17q10 3 10 15q0 5 -4.5 9.5t-11.5 4.5h-21v-46h8v15h12zM426 276q11 0 17.5 7t6.5 17q0 9 -7 16.5t-17 7.5t-16.5 -7.5t-6.5 -16.5q0 -10 6.5 -17t16.5 -7zM370 301l-13 22h-9l18 -29v-17h8v17l18 29h-9zM193 323 v-46h33v7h-25v13h22v7h-22v12h25v7h-33zM132 323v-46h8v32l25 -32h7v46h-8v-32l-25 32h-7zM241 323l15 -47h8l10 34h1l11 -34h8l14 47h-8l-10 -35h-1l-10 35h-8l-11 -35h-1l-10 35h-8zM327 479q-12 22 -12 32q0 19 14 19q13 0 13 -19q0 -15 -15 -32zM342 423q-6 -21 -18 -21 q-17 0 -17 27q0 18 15 33zM488 299h-12v17h11q10 0 10 -8q0 -9 -9 -9zM426 283q-15 0 -15 17q0 6 4.5 11.5t10.5 5.5q7 0 11.5 -5.5t4.5 -11.5q0 -7 -4.5 -12t-11.5 -5z" />
<glyph horiz-adv-x="242" d="M115 741l88 -21q-22 -127 -134 -193l-46 37q69 61 92 177z" />
<glyph horiz-adv-x="0" />
</font>
</defs>
</svg>
